Всегда рабочее зеркало без VPN и Proxy просто перед .vidak.icu напиши любое слово или цифру, Пример http://g2l6.vidak.icu

Лицензия

MVO

1 сезон

1

1 сезон

iTunes

1 сезон

13

1 сезон

Deluxe

pack

Рекомендуем

Repack

30

ВАЖНО

RePack

MK11

RePack

jed

RePack

fifa19

RePack

RDR2

RePack

NEED FOR SPEED™ PAYBACK

Кинопоиск HD

6 сезон

 Острые козырьки 6 сезон

Все сериалы

все сериалы на PB.wtf

RePack

FAR CRY 5
  
Magnet ссылка

Подозрения мистера Уичера / The Suspicions of Mr Whicher (Джеймс Хоуз) [2011 г., детектив, драма, DVDRip] pb.wtf

Подозрения мистера Уичера через торрент pb.wtf

Размер: 871 MB | Добавлен: 10 лет назад | Торрент скачан:125 раз
Смотреть онлайн Подозрения мистера Уичера | Скачать    Ребята, помогите собрать деньги на оплату серверов!!!

11-08-2012 14:31 Подозрения мистера Уичера Скачать торрент  

Подозрения мистера Уичера / The Suspicions of Mr Whicher

Год выпуска: 2011
Страна: Великобритания
Жанр: детектив, драма
Продолжительность: 01:34:24

Режиссер: Джеймс Хоуз
Перевод: Любительский (двухголосый закадровый) студия "Райдо"
Cубтитры
: русские

Премьера в мире: 25 апреля 2011

В ролях: Пэдди Консидайн, Питер Капальди, Том Джорджсон, Уильям Бек, Эмма Филдинг, Тим Пиготт-Смит, Кейт О’Флинн, Дональд Самптер, Бен Майлз, Александра Роач

Описание: Самое загадочное преступление и самое необычное расследование Скотленд-Ярда. Реальная история, положенная в основу удивительного, захватывающего романа Кейт Саммерскейл!
1860 год. Богатый загородный особняк высокопоставленного чиновника Сэмюела Кента. Казалось бы, там не может случиться ничего из ряда вон выходящего...
Но летней ночью в доме совершается чудовищное убийство, жертвой которого становится трехлетний сын Кента.
Дело поручают Джеку Уичеру - знаменитому детективу Скотленд-Ярда, человеку-легенде, ставшему прототипом сыщика Каффа - героя романа Уилки Коллинза "Лунный камень". Уичер сразу понимает - человек "со стороны" просто не смог бы пробраться в особняк Кентов. А это значит, что под подозрением оказываются все обитатели дома - от слуг до членов семьи...

Качество: DVDRip
Формат: AVI
Видео кодек: XviD
Аудио кодек: МР3
Видео: XviD, 640х352, 16:9, 25.0 fps, 892 kbps
Аудио#1: MPEG, Layer3, 48.0 KHz, 192 kbps, 2ch русский





E:\The Suspicions of Mr Whicher_1.avi
General
Complete name : E:\The Suspicions of Mr Whicher_1.avi
Format : AVI
Format/Info : Audio Video Interleave
File size : 741 MiB
Duration : 1h 34mn
Overall bit rate : 1 097 Kbps
Writing application : Lavf54.3.100
Video #0
ID : 0
Format : MPEG-4 Visual
Format profile : Advanced [email protected]
Format settings, BVOP : 1
Format settings, QPel : No
Format settings, GMC : No warppoints
Format settings, Matrix : Default (H.263)
Codec ID : XVID
Codec ID/Hint : XviD
Duration : 1h 34mn
Bit rate : 892 Kbps
Width : 640 pixels
Height : 352 pixels
Display aspect ratio : 16:9
Frame rate : 25.000 fps
Color space : YUV
Chroma subsampling : 4:2:0
Bit depth : 8 bits
Scan type : Progressive
Compression mode : Lossy
Bits/(Pixel*Frame) : 0.158
Stream size : 602 MiB (81%)
Writing library : XviD 1.2.1 (UTC 2008-12-04)
Audio #1
ID : 1
Format : MPEG Audio
Format version : Version 1
Format profile : Layer 3
Codec ID : 55
Codec ID/Hint : MP3
Duration : 1h 34mn
Bit rate mode : Constant
Bit rate : 192 Kbps
Channel(s) : 2 channels
Sampling rate : 48.0 KHz
Compression mode : Lossy
Stream size : 130 MiB (18%)
Alignment : Aligned on interleaves
Interleave, duration : 24 ms (0.60 video frame)
Interleave, preload duration : 24 ms

pb.wtf



Скачать Подозрения мистера Уичера через торрент https://pic1.kartinco.top/images/111/4swre6sjni.png Скачать, смотреть онлайн Подозрения мистера Уичера бесплантно в хорошем качестве Описание: Самое загадочное преступление и самое необычное расследование Скотленд-Ярда. Реальная история, положенная в основу удивительного, ... 4.5 10 2
Info! Золотая раздача, скачанное не засчитывается.
Торрент: Зарегистрирован [2012-08-11 14:31] · скачан: 125 раз
Статус: T временная
Размер: 871 MB
Как cкачать? Как скачать Подозрения мистера Уичера через торрент | UTorrent

% Раздел Тема Автор DL S | L
Фильмы 2011 [ 1.35 GB ] Подозрения мистера Уичера / The Suspicions of Mr Whicher [2011 HDTV MVO лицензия] GoldEX Скачать
1 | 0

28-11-2019 20:33  

Отключить вcю реклaмy на сайте

    Дорогой пользователь! Огромная просьба, поблагодарите релизера, оцените раздачу и оставьте свои комментарий, если Вы скачали Подозрения мистера Уичера через торрент бесплатно!
    Комментировать посты могут только пользователи прошедшие не сложную регистрацию
    Показать сообщения:    

    Подозрения мистера Уичера через торрент
    Скачать бесплатно Подозрения мистера Уичера
    Подозрения мистера Уичера скачать торрент
    Подозрения мистера Уичера смотреть онлайн
    Cкачать фильм Подозрения мистера Уичера бесплатно
    Подозрения мистера Уичера скачать торрент в хорошем качестве
    Подозрения мистера Уичера смотреть онлайн бесплатно в хорошем качестве


    Вы не можете начинать темы
    Вы не можете отвечать на сообщения
    Вы не можете редактировать свои сообщения
    Вы не можете удалять свои сообщения
    Вы не можете голосовать в опросах
    Вы не можете прикреплять файлы к сообщениям
    Вы можете скачивать файлы