Ссылка на приватное зеркало нашего сайта всего за 1$. Внимание количество ограничено!!!

2 сезон

iTunes

1 сезон

1

iTunes

iTunes

iTunes

1 сезон

RePack

30

ИГРА 18+

pack

ВАЖНО

!!Акция!!

Alien_RageХит недели

RePack

MK11
pack

Забери бонус

RePack

jed

!!Акция!!

Alien_Rage

RePack

fifa19

RePack

Assassins Creed: Odyssey

RePack

NEED FOR SPEED™ PAYBACK

4 сезон

9 сезон

Бесстыжие 9 сезон

Все сериалы

все сериалы на PB.wtf

RePack

FAR CRY 5
  

Игра смерти / Game of Death (Джорджо Серафин) [2010 г., Боевик,Триллер, HDRip, Профессиональный (многоголосый) РЕН-ТВ] pb.wtf

Игра смерти через торрент pb.wtf

Размер: 698 MB | Добавлен: 8 лет 2 мес. назад | Торрент скачан:82 раза
Скачать  

11-08-2012 14:51 Игра смерти Скачать торрент  

Игра смерти / Game of Death

Год выпуска: 2010
Страна: США
Жанр: Боевик,Триллер
Продолжительность: 01:37:56
Перевод: Профессиональный (многоголосый) (РЕН-ТВ)

Режиссер: Джорджо Серафин

Бюджет: $13 000 000
Премьера в мире: 27 ноября 2010

В ролях: Уэсли Снайпс, Зои Белл, Гэри Дэниелс, Роберт Дави, Саймон Ри, Ричард Готери, Владимир Тевловский, Ху Сунг Пак, Лэйдон Драммонд, Стэйси Хэдкости, Дарси Лейтзингер

Описание: Защищая видного дипломата, его личный телохранитель со своей командой оказываются c ранениями в больнице, где знакомятся с медсестрой под прикрытием. Они решают объединится, для обороны дипломата, но в дальнейшем медсестра понимает, что ситуация складывается совсем не так, как хотелось бы всем. Каждый из компании становится участником одной игры смерти.

Качество: HDRip
Формат: AVI
Видео кодек: XviD
Аудио кодек: AC3
Видео: Xvid, 640x272, 23.976fps, 793kbps
Аудио#1: Dolby AC3, 48000Hz, 2ch, 192kbps





Общее
Полное имя : D:\Торенты\Игра смерти.700.avi
Формат : AVI
Формат/Информация : Audio Video Interleave
Размер файла : 698 Мбайт
Продолжительность : 1 ч. 37 м.
Общий поток : 996 Кбит/сек
Программа кодирования : Lavf54.16.104

Видео
Идентификатор : 0
Формат : MPEG-4 Visual
Профиль формата : Simple@L3
Параметр BVOP формата : Нет
Параметр QPel формата : Нет
Параметр GMC формата : Без точки перехода
Параметр матрицы формата : Default (H.263)
Идентификатор кодека : XVID
Идентификатор кодека/Подсказка : XviD
Продолжительность : 1 ч. 37 м.
Битрейт : 793 Кбит/сек
Ширина : 640 пикселей
Высота : 272 пикселя
Соотношение сторон : 2,35:1
Частота кадров : 23,976 кадра/сек
Цветовое пространство : YUV
Субдискретизация насыщенности : 4:2:0
Битовая глубина : 8 бит
Тип развёртки : Прогрессивная
Метод сжатия : С потерями
Бит/(Пиксели*Кадры) : 0.190
Размер потока : 556 Мбайт (80%)
Библиотека кодирования : XviD 64

Аудио
Идентификатор : 1
Формат : AC-3
Формат/Информация : Audio Coding 3
Расширение режима : CM (complete main)
Идентификатор кодека : 2000
Продолжительность : 1 ч. 37 м.
Вид битрейта : Постоянный
Битрейт : 192 Кбит/сек
Каналы : 2 канала
Расположение каналов : Front: L R
Частота : 48,0 КГц
Битовая глубина : 16 бит
Метод сжатия : С потерями
Размер потока : 134 Мбайт (19%)
Выравнивание : Соединение по промежуткам
Продолжительность промежутка : 32 мс. (0,77 видеокадр)
Заголовок : Профессиональный (многоголосый, закадровый) РенТВ

pb.wtf



Скачать Игра смерти через торрент http://i42.fastpic.ru/big/2012/0811/06/591b567f8743afc247ef55901fc34406.jpg Скачать фильм Игра смерти через торрент бесплантно в хорошем качестве Описание: Защищая видного дипломата, его личный телохранитель со своей командой оказываются c ранениями в больнице, где знакомятся с ... 7 10 1
Info! Золотая раздача, скачанное не засчитывается.
Торрент: Зарегистрирован [2012-08-11 14:51] · скачан: 82 раз
Статус: √ проверено
Размер: 698 MB
Как cкачать? Как скачать Игра смерти через торрент | qTorrent

% Раздел Тема Автор DL S | L
Фильмы 2010 [ 1.46 GB ] Игра смерти / Game of Death [2010 HDRip РЕН-ТВ] Ворон Скачать
1 | 0

28-11-2019 20:33  

Отключить всю рекламу на сайте

11-08-2012 15:52 Игра смерти Скачать торрент  

Vetаl
Тех. данные над писать через запятую.
pb.wtf



11-08-2012 17:00 Игра смерти Скачать торрент  

кэп писал(а):

Vetаl
Тех. данные над писать через запятую.

Ок.pb.wtf



    Дорогой пользователь! Огромная просьба, поблагодарите релизера, оцените раздачу и оставьте свои комментарий, если Вы скачали Игра смерти через торрент бесплатно! Внесите свою лепту в развитие PiratBit!
    Комментировать посты могут только пользователи прошедшие не сложную регистрацию
    Показать сообщения:    

    Игра смерти через торрент
    Скачать бесплатно Игра смерти
    Игра смерти скачать торрент
    Игра смерти смотреть онлайн
    Cкачать фильм Игра смерти бесплатно
    Игра смерти скачать торрент в хорошем качестве
    Игра смерти смотреть онлайн бесплатно в хорошем качестве


    Вы не можете начинать темы
    Вы не можете отвечать на сообщения
    Вы не можете редактировать свои сообщения
    Вы не можете удалять свои сообщения
    Вы не можете голосовать в опросах
    Вы не можете прикреплять файлы к сообщениям
    Вы можете скачивать файлы