Всегда рабочее зеркало без VPN и Proxy просто перед .vidak.icu напиши любое слово или цифру, Пример http://xmkb.vidak.icu

MVO

2 сезон

1 сезон

1

1 сезон

iTunes

2 сезон

13

1 сезон

Deluxe

pack

Рекомендуем

Пиратка

30

ВАЖНО

RePack

MK11

RePack

jed

RePack

fifa19

RePack

RDR2

RePack

NEED FOR SPEED™ PAYBACK

Кинопоиск HD

6 сезон

 Острые козырьки 6 сезон

Все сериалы

все сериалы на PB.wtf

RePack

FAR CRY 5

Anonymous, нам критически не хватает 5601 руб. на оплату серверов и переферии за Апрель, помоги нам пожалуйста, вся надежда только на тебя. В благодарность мы отключим тебе всю рекламу на сайте!

×
  
Magnet ссылка

Боже, Благослови Америку / God Bless America (Боб Голдтуэйт / Bobcat Goldthwait) [2011 г., триллер, чёрная комедия, криминал, социальная драма, HDRip, Профессиональный (многоголосый) (лицензия)] pb.wtf

Боже, Благослови Америку через торрент pb.wtf

Размер: 1.45 GB | Добавлен: 9 лет 9 мес. назад | Торрент скачан:600 раз
Смотреть онлайн Боже, Благослови Америку | Скачать    Ребята, помогите собрать деньги на оплату серверов!!!

12-08-2012 06:33 Боже, Благослови Америку Скачать торрент  

Боже, Благослови Америку / God Bless America

Год выпуска: 2011
Страна: США
Жанр: триллер, чёрная комедия, криминал, социальная драма
Продолжительность: 01:44:22
Перевод: Профессиональный (многоголосый) (Лицензия)

Режиссер: Боб Голдтуэйт / Bobcat Goldthwait

В ролях: Джоэль Мюррей, Тара Барр, Маккензи Брук Смит, Мелинда Пейдж Хэмилтон, Рич МакДональд, Андреа Харпер, Дэвид Менденхолл, Джулиана Акоста и др.

Описание: Фрэнк просто выдохся: сосед-невежа, постоянный плач ребенка, глупая болтовня коллег, и в довершение всего ещё и опухоль мозга. Достав пистолет, уставший от жизни герой находит для себя неожиданного друга и союзника по имени Рокси. Это девушка-студентка, проявляющая нетерпимость к идиотам вокруг и мыслящая в точности, как и Фрэнк. Он даёт ей уроки стрельбы, а она ему цели, которые нужно поразить.

Качество: HDRip
Формат: AVI
Видео кодек: XviD
Аудио кодек: AC3
Видео: 720x304 (2.37:1), 23.976 fps, XviD build 50 ~1537 kbps avg, 0.29 bit/pixel
Аудио#1: 48 kHz, AC3 Dolby Digital, 2/0 (L,R) ch, ~448.00 kbps avg

Общее
Полное имя : E:\Загрузка\Bozhe.blagoslovi.Ameriku.2011.P.HDRip.avi
Формат : AVI
Формат/Информация : Audio Video Interleave
Размер файла : 1,45 Гбайт
Продолжительность : 1 ч. 44 м.
Общий поток : 1995 Кбит/сек
Программа кодирования : VirtualDubMod 1.5.10.2 (build 2540/release)
Библиотека кодирования : VirtualDubMod build 2540/release

Видео
Идентификатор : 0
Формат : MPEG-4 Visual
Профиль формата : Advanced Simple@L5
Параметр BVOP формата : 2
Параметр QPel формата : Нет
Параметр GMC формата : Без точки перехода
Параметр матрицы формата : Выборочная
Идентификатор кодека : XVID
Идентификатор кодека/Подсказка : XviD
Продолжительность : 1 ч. 44 м.
Битрейт : 1538 Кбит/сек
Ширина : 720 пикселей
Высота : 304 пикселя
Соотношение сторон : 2,35:1
Частота кадров : 23,976 кадра/сек
Цветовое пространство : YUV
Субдискретизация насыщенности : 4:2:0
Битовая глубина : 8 бит
Тип развёртки : Прогрессивная
Метод сжатия : С потерями
Бит/(Пиксели*Кадры) : 0.293
Размер потока : 1,12 Гбайт (77%)
Библиотека кодирования : XviD 1.2.1 (UTC 2008-12-04)

Аудио
Идентификатор : 1
Формат : AC-3
Формат/Информация : Audio Coding 3
Расширение режима : CM (complete main)
Параметр Endianness формата : Big
Идентификатор кодека : 2000
Продолжительность : 1 ч. 44 м.
Вид битрейта : Постоянный
Битрейт : 448 Кбит/сек
Каналы : 2 канала
Расположение каналов : Front: L R
Частота : 48,0 КГц
Битовая глубина : 16 бит
Метод сжатия : С потерями
Размер потока : 334 Мбайт (22%)
Выравнивание : Разделение по промежуткам
Продолжительность промежутка : 42 мс. (1,00 видеокадр)
Время предзагрузки промежутка : 500 мс.

pb.wtf



Скачать Боже, Благослови Америку через торрент http://s001.radikal.ru/i196/1205/63/306e115828ab.jpg Скачать, смотреть онлайн Боже, Благослови Америку бесплантно в хорошем качестве Описание: Фрэнк просто выдохся: сосед-невежа, постоянный плач ребенка, глупая болтовня коллег, и в довершение всего ещё и опухоль мозга. ... 10 10 6
Info! Золотая раздача, скачанное не засчитывается.
Торрент: Зарегистрирован [2012-08-12 06:33] · скачан: 600 раз
Статус: √ проверено
Размер: 1.45 GB
Как cкачать? Как скачать Боже, Благослови Америку через торрент | UTorrent

% Раздел Тема Автор DL S | L
Фильмы с авторской озвучкой [ 1.71 GB ] Боже благослови Америку! / God Bless America [2011 Черная BDRip] [AVO] killermax2013 Скачать
1 | 0
Фильмы 2011 [ 2.18 GB ] Боже Благослови Америку / God Bless America [2011 чёрная HDRip-AVC] MVO + DVO + VO + Original Eng sokol_ok Скачать
3 | 0
Фильмы (DVD фильмы) [ 6.78 GB ] Боже благослови Америку! / God Bless America [2011 DVD9] / MVO shuller Скачать
1 | 0
Фильмы [HD 720p, 1080p] (Хороший звук DUB, MVO) [ 5.12 GB ] Боже благослови Америку / God Bless America [2011 BDRip + Оригинал] AlexKa Скачать
1 | 0
Фильмы 2011 [ 701 MB ] Боже Благослови Америку / God Bless America [2011 чёрная социальная HDRip ] Ворон Скачать
1 | 0

28-11-2019 20:33  

Отключить всю рекламу на сайте

12-08-2012 08:17 Боже, Благослови Америку Скачать торрент  

Можно хоть глянуть?pb.wtf



12-08-2012 08:35 Боже, Благослови Америку Скачать торрент  

zra писал(а):

Можно хоть глянуть?

Можно, фильм заслуживает это.pb.wtf



12-08-2012 08:43 Боже, Благослови Америку Скачать торрент  

Двухголосая озвучка от Ozz TV получше будетpb.wtf



13-08-2012 09:24 Боже, Благослови Америку Скачать торрент  

на раз пойдётpb.wtf



    Дорогой пользователь! Огромная просьба, поблагодарите релизера, оцените раздачу и оставьте свои комментарий, если Вы скачали Боже, Благослови Америку через торрент бесплатно!
    Комментировать посты могут только пользователи прошедшие не сложную регистрацию
    Показать сообщения:    

    Боже, Благослови Америку через торрент
    Скачать бесплатно Боже, Благослови Америку
    Боже, Благослови Америку скачать торрент
    Боже, Благослови Америку смотреть онлайн
    Cкачать фильм Боже, Благослови Америку бесплатно
    Боже, Благослови Америку скачать торрент в хорошем качестве
    Боже, Благослови Америку смотреть онлайн бесплатно в хорошем качестве


    Вы не можете начинать темы
    Вы не можете отвечать на сообщения
    Вы не можете редактировать свои сообщения
    Вы не можете удалять свои сообщения
    Вы не можете голосовать в опросах
    Вы не можете прикреплять файлы к сообщениям
    Вы можете скачивать файлы