Ссылка на приватное зеркало нашего сайта всего за 1$. Внимание количество ограничено!!!

2 сезон

iTunes

1 сезон

1

iTunes

iTunes

iTunes

1 сезон

RePack

30

ИГРА 18+

pack

ВАЖНО

!!Акция!!

Alien_RageХит недели

RePack

MK11
pack

Забери бонус

RePack

jed

!!Акция!!

Alien_Rage

RePack

fifa19

RePack

Assassins Creed: Odyssey

RePack

NEED FOR SPEED™ PAYBACK

4 сезон

9 сезон

Бесстыжие 9 сезон

Все сериалы

все сериалы на PB.wtf

RePack

FAR CRY 5
  

Боже, благослови Америку / God Bless America (Боб Голдтуэйт) [2011 г., комедия, BDRip (720p), Профессиональный (лицензия) + Оригинал] pb.wtf

Боже, благослови Америку через торрент pb.wtf

Размер: 5.12 GB | Добавлен: 8 лет 2 мес. назад | Торрент скачан:79 раз
Скачать  

12-08-2012 09:53 Боже, благослови Америку Скачать торрент  

Боже, благослови Америку / God Bless America

Год выпуска: 2011
Страна: США / Darko Entertainment
Жанр: комедия
Продолжительность: 01:44:22
Перевод: Профессиональный (Лицензия) + Оригинал
Тип релиза: Лицензия

Режиссер: Боб Голдтуэйт

В ролях: Джоэль Мюррей, Тара Барр, Маккензи Брук Смит, Мелинда Пейдж Хэмилтон, Рич МакДональд, Андреа Харпер, Дэвид Менденхолл, Джулиана Акоста

Описание: Фрэнк просто выдохся: сосед-невежа, постоянный плач ребенка, глупая болтовня коллег, и в довершение всего — ещё и опухоль мозга. Достав пистолет, уставший от жизни герой находит для себя неожиданного друга и союзника по имени Рокси. Это девушка-студентка, проявляющая нетерпимость к идиотам вокруг и мыслящая в точности, как и Фрэнк. Он даёт ей уроки стрельбы, а она ему — цели, которые нужно поразить.

Качество: BDRip (720p)
Формат: MKV
Видео кодек: AVC
Аудио кодек: AC3
Видео: AVC, 1280x546 (2.35:1), 23.976 fps, 5 290 Kbps (0.316 bit/pixel)
Аудио#1: AC-3, 48.0 KHz, 2 ch, 448 Kbps, CBR (Russian)[R5]
Аудио#2: AC-3, 48.0 KHz, 6 ch, 640 Kbps, CBR (Russian)[OZZ]
Аудио#3: AC-3, 48.0 KHz, 6 ch, 640 Kbps, CBR (English)

Субтитры: Russian, Russian, Russian, English, English
Релиз от:

General
Unique ID : 208526267310742443268863351301522859417 (0x9CE0B2BFE3C8533D8DC9E8490D342599)
Complete name : D:\Bozhe.blagoslovi.Ameriku.2011.P.BDRip.720p.IRONCLUB.mkv
Format : Matroska
Format version : Version 2
File size : 5.12 GiB
Duration : 1h 44mn
Overall bit rate : 7 021 Kbps
Movie name : IRONCLUB
Encoded date : UTC 2012-08-11 19:49:50
Writing application : mkvmerge v4.9.1 ('Ich will') built on Jul 11 2011 23:53:15
Writing library : libebml v1.2.1 + libmatroska v1.1.1

Video
ID : 1
Format : AVC
Format/Info : Advanced Video Codec
Format profile : High@L4.1
Format settings, CABAC : Yes
Format settings, ReFrames : 9 frames
Codec ID : V_MPEG4/ISO/AVC
Duration : 1h 44mn
Bit rate : 5 290 Kbps
Width : 1 280 pixels
Height : 546 pixels
Display aspect ratio : 2.35:1
Frame rate : 23.976 fps
Color space : YUV
Chroma subsampling : 4:2:0
Bit depth : 8 bits
Scan type : Progressive
Bits/(Pixel*Frame) : 0.316
Stream size : 3.76 GiB (73%)
Title : God.Bless.America.2011.720p.BluRay.DD5.1.x264-HiDt
Writing library : x264 core 125 r2200 999b753
Encoding settings : cabac=1 / ref=9 / deblock=1:-3:-3 / analyse=0x3:0x113 / me=tesa / subme=11 / psy=1 / psy_rd=0.91:0.00 / mixed_ref=1 / me_range=32 / chroma_me=1 / trellis=2 / 8x8dct=1 / cqm=0 / deadzone=21,11 / fast_pskip=0 / chroma_qp_offset=-2 / threads=12 / lookahead_threads=2 / sliced_threads=0 / nr=0 / decimate=1 / interlaced=0 / bluray_compat=0 / constrained_intra=0 / bframes=6 / b_pyramid=2 / b_adapt=2 / b_bias=0 / direct=3 / weightb=1 / open_gop=0 / weightp=2 / keyint=240 / keyint_min=23 / scenecut=40 / intra_refresh=0 / rc_lookahead=80 / rc=2pass / mbtree=1 / bitrate=5290 / ratetol=1.0 / qcomp=0.70 / qpmin=0 / qpmax=69 / qpstep=4 / cplxblur=20.0 / qblur=0.5 / ip_ratio=1.40 / aq=1:0.90 / zones=142945,150145,b=0.1
Language : English
Default : No
Forced : No

Audio #1
ID : 2
Format : AC-3
Format/Info : Audio Coding 3
Mode extension : CM (complete main)
Format settings, Endianness : Big
Codec ID : A_AC3
Duration : 1h 44mn
Bit rate mode : Constant
Bit rate : 448 Kbps
Channel(s) : 2 channels
Channel positions : Front: L R
Sampling rate : 48.0 KHz
Bit depth : 16 bits
Compression mode : Lossy
Stream size : 334 MiB (6%)
Title : Russian R5
Language : Russian
Default : Yes
Forced : No

Audio #2
ID : 3
Format : AC-3
Format/Info : Audio Coding 3
Mode extension : CM (complete main)
Format settings, Endianness : Big
Codec ID : A_AC3
Duration : 1h 44mn
Bit rate mode : Constant
Bit rate : 640 Kbps
Channel(s) : 6 channels
Channel positions : Front: L C R, Side: L R, LFE
Sampling rate : 48.0 KHz
Bit depth : 16 bits
Compression mode : Lossy
Stream size : 478 MiB (9%)
Title : DVO ozz.tv
Language : Russian
Default : No
Forced : Yes

Audio #3
ID : 4
Format : AC-3
Format/Info : Audio Coding 3
Mode extension : CM (complete main)
Format settings, Endianness : Big
Codec ID : A_AC3
Duration : 1h 44mn
Bit rate mode : Constant
Bit rate : 640 Kbps
Channel(s) : 6 channels
Channel positions : Front: L C R, Side: L R, LFE
Sampling rate : 48.0 KHz
Bit depth : 16 bits
Compression mode : Lossy
Stream size : 478 MiB (9%)
Title : Original
Language : English
Default : No
Forced : No

Text #1
ID : 5
Format : UTF-8
Codec ID : S_TEXT/UTF8
Codec ID/Info : UTF-8 Plain Text
Title : перевод Лепры (Суверенный Лепрозорий)
Language : Russian
Default : No
Forced : No

Text #2
ID : 6
Format : UTF-8
Codec ID : S_TEXT/UTF8
Codec ID/Info : UTF-8 Plain Text
Title : перевод Юрий Гришин
Language : Russian
Default : No
Forced : No

Text #3
ID : 7
Format : UTF-8
Codec ID : S_TEXT/UTF8
Codec ID/Info : UTF-8 Plain Text
Title : Перевод KingFisheR, ред-Stvstas
Language : Russian
Default : No
Forced : No

Text #4
ID : 8
Format : UTF-8
Codec ID : S_TEXT/UTF8
Codec ID/Info : UTF-8 Plain Text
Title : Full
Language : English
Default : Yes
Forced : No

Text #5
ID : 9
Format : UTF-8
Codec ID : S_TEXT/UTF8
Codec ID/Info : UTF-8 Plain Text
Title : SDH
Language : English
Default : No
Forced : No

Menu
00:00:00.000 : en:Chapter 01
00:06:34.936 : en:Chapter 02
00:18:07.419 : en:Chapter 03
00:27:42.619 : en:Chapter 04
00:37:28.120 : en:Chapter 05
00:45:35.023 : en:Chapter 06
00:53:57.067 : en:Chapter 07
01:11:50.431 : en:Chapter 08
01:18:16.566 : en:Chapter 09
01:28:09.617 : en:Chapter 10
01:31:49.921 : en:Chapter 11
01:39:28.671 : en:Chapter 12

pb.wtf



Скачать Боже, благослови Америку через торрент http://imgtag.ru/images/9802bb074f24f5f05ab4e3b82.png Скачать фильм Боже, благослови Америку через торрент бесплантно в хорошем качестве Описание: Фрэнк просто выдохся: сосед-невежа, постоянный плач ребенка, глупая болтовня коллег, и в довершение всего — ещё и опухоль мозга. ... 9 10 2
Info! Золотая раздача, скачанное не засчитывается.
Торрент: Зарегистрирован [2012-08-12 09:53] · скачан: 79 раз
Статус: √ проверено
Размер: 5.12 GB
Как cкачать? Как скачать Боже, благослови Америку через торрент | qTorrent

28-11-2019 20:33  

Отключить всю рекламу на сайте

    Дорогой пользователь! Огромная просьба, поблагодарите релизера, оцените раздачу и оставьте свои комментарий, если Вы скачали Боже, благослови Америку через торрент бесплатно! Внесите свою лепту в развитие PiratBit!
    Комментировать посты могут только пользователи прошедшие не сложную регистрацию
    Показать сообщения:    

    Боже, благослови Америку через торрент
    Скачать бесплатно Боже, благослови Америку
    Боже, благослови Америку скачать торрент
    Боже, благослови Америку смотреть онлайн
    Cкачать фильм Боже, благослови Америку бесплатно
    Боже, благослови Америку скачать торрент в хорошем качестве
    Боже, благослови Америку смотреть онлайн бесплатно в хорошем качестве


    Вы не можете начинать темы
    Вы не можете отвечать на сообщения
    Вы не можете редактировать свои сообщения
    Вы не можете удалять свои сообщения
    Вы не можете голосовать в опросах
    Вы не можете прикреплять файлы к сообщениям
    Вы можете скачивать файлы