Ссылка на приватное зеркало нашего сайта всего за 1$. Внимание количество ограничено!!!

2 сезон

iTunes

1 сезон

1

2 сезон

2 сезон

iTunes

1 сезон

RePack

30

Ultimate

ВАЖНО

ИГРА 18+

pack

RePack

MK11
pack

Забери бонус

RePack

jed

!!Акция!!

Alien_Rage

RePack

fifa19

RePack

Assassins Creed: Odyssey

RePack

NEED FOR SPEED™ PAYBACK

4 сезон

9 сезон

Бесстыжие 9 сезон

Все сериалы

все сериалы на PB.wtf

RePack

FAR CRY 5
  

Ворон / The Raven (Джеймс МакТиг) [2012 г., Триллер, Детектив, BDRemux, DUB + Оригинал + Укр] pb.wtf

Ворон через торрент pb.wtf

Размер: 26.39 GB | Добавлен: 8 лет 3 мес. назад | Торрент скачан:22 раза
Скачать  

13-08-2012 20:32 Ворон Скачать торрент  

Ворон / The Raven

Год выпуска: 2012
Страна: США , Венгрия , Испания
Жанр: Триллер, Детектив
Продолжительность: 01:50:52
Перевод: Дубляж + Укр
Тип релиза: Лицензия

Режиссер: Джеймс МакТиг

В ролях: Джон Кьюсак, Элис Ив, Люк Эванс, Брендан Глисон, Кевин МакНэлли, Оливер Джексон-Коэн, Джимми Юилл, Сэм Хэзелдайн, Пэм Феррис, Брендан Койл

Описание: Рассказ о последних днях жизни Эдгара Аллана По. Знаменитый поэт преследует серийного убийцу, чьи преступления очень похожи на те, что описаны в его произведениях.

Качество: BDRemux
Формат: MKV
Видео кодек: MPEG-4 AVC/H.264
Аудио кодек: AC-3, DTS-HD MA
Видео: 1920x1080, 23.976 fps, ~31,1 mb/s
Аудио#1: Русский, AC-3, 384 kbps, 6 каналов, 16 bit, (L, C, R, l, r) + LFE - Дублированный
Аудио#2: Украинский, AC-3, 384 kbps, 6 каналов, 16 bit, (L, C, R, l, r) + LFE - Многоголосый
Аудио#3: Английский, DTS-HD MA, 5.1, 48 kHz, 3430 kbps, 24 bit, 6 каналов, (DTS Core: 5.1, 48 kHz, 1509 kbps, 24 bit, 6 каналов) - (L, C, R, l, r) + LFE - Оригинал

Язык субтитров: Русские (voronine), Английские (Full, Full SDH)
Вид субтитров: Вшитые, отключаемые

Формат : Matroska
Версия формата : Version 2
Размер файла : 26,4 Гбайт
Продолжительность : 1 ч. 50 м.
Режим общего битрейта : Переменный
Общий поток : 34,1 Мбит/сек
Дата кодирования : UTC 2012-08-12 17:41:20
Программа кодирования : mkvmerge v5.7.0 ('The Whirlwind') built on Jul 8 2012 20:08:51
Библиотека кодирования : libebml v1.2.3 + libmatroska v1.3.0

Видео
Идентификатор : 1
Формат : AVC
Формат/Информация : Advanced Video Codec
Профиль формата : High@L4.1
Параметр CABAC формата : Да
Параметр ReFrames формата : 4 кадра
Идентификатор кодека : V_MPEG4/ISO/AVC
Продолжительность : 1 ч. 50 м.
Вид битрейта : Переменный
Битрейт : 31,1 Мбит/сек
Максимальный битрейт : 33,0 Мбит/сек
Ширина : 1920 пикселей
Высота : 1080 пикселей
Соотношение сторон : 16:9
Частота кадров : 23,976 кадра/сек
Цветовое пространство : YUV
Субдискретизация насыщенности : 4:2:0
Битовая глубина : 8 бит
Тип развёртки : Прогрессивная
Бит/(Пиксели*Кадры) : 0.625
Размер потока : 24,1 Гбайт (91%)
Язык : English
Default : Да
Forced : Да

Аудио #1
Идентификатор : 2
Формат : AC-3
Формат/Информация : Audio Coding 3
Расширение режима : CM (complete main)
Идентификатор кодека : A_AC3
Продолжительность : 1 ч. 50 м.
Вид битрейта : Постоянный
Битрейт : 384 Кбит/сек
Каналы : 6 каналов
Расположение каналов : Front: L C R, Side: L R, LFE
Частота : 48,0 КГц
Битовая глубина : 16 бит
Метод сжатия : С потерями
Размер потока : 305 Мбайт (1%)
Заголовок : DUB
Язык : Russian
Default : Да
Forced : Да

Аудио #2
Идентификатор : 3
Формат : AC-3
Формат/Информация : Audio Coding 3
Расширение режима : CM (complete main)
Идентификатор кодека : A_AC3
Продолжительность : 1 ч. 50 м.
Вид битрейта : Постоянный
Битрейт : 384 Кбит/сек
Каналы : 6 каналов
Расположение каналов : Front: L C R, Side: L R, LFE
Частота : 48,0 КГц
Битовая глубина : 16 бит
Метод сжатия : С потерями
Размер потока : 305 Мбайт (1%)
Заголовок : MVO
Язык : Ukrainian
Default : Нет
Forced : Нет

Аудио #3
Идентификатор : 4
Формат : DTS
Формат/Информация : Digital Theater Systems
Профиль формата : MA / Core
Идентификатор кодека : A_DTS
Продолжительность : 1 ч. 50 м.
Вид битрейта : Переменный
Битрейт : 1561 Кбит/сек / 1510 Кбит/сек
Каналы : 6 каналов
Расположение каналов : Front: L C R, Side: L R, LFE
Частота : 48,0 КГц
Битовая глубина : 24 бит
Метод сжатия : Без потерь / Lossy
Язык : English
Default : Нет
Forced : Нет

Текст #1
Идентификатор : 5
Формат : UTF-8
Идентификатор кодека : S_TEXT/UTF8
Идентификатор кодека/Информация : UTF-8 Plain Text
Заголовок : voronine
Язык : Russian
Default : Нет
Forced : Нет

Текст #2
Идентификатор : 6
Формат : UTF-8
Идентификатор кодека : S_TEXT/UTF8
Идентификатор кодека/Информация : UTF-8 Plain Text
Заголовок : Full
Язык : English
Default : Нет
Forced : Нет

Текст #3
Идентификатор : 7
Формат : UTF-8
Идентификатор кодека : S_TEXT/UTF8
Идентификатор кодека/Информация : UTF-8 Plain Text
Заголовок : Full SDH
Язык : English
Default : Нет
Forced : Нет

Меню
00:00:00.000 : en:
00:06:00.651 : en:
00:11:40.157 : en:
00:17:30.007 : en:
00:22:07.117 : en:
00:26:51.693 : en:
00:30:40.088 : en:
00:34:42.830 : en:
00:40:36.392 : en:
00:44:30.667 : en:
00:50:37.033 : en:
00:57:26.609 : en:
01:01:36.901 : en:
01:06:30.569 : en:
01:12:28.260 : en:
01:18:23.865 : en:
01:24:18.928 : en:
01:27:40.463 : en:
01:34:01.344 : en:
01:40:39.742 : en:

pb.wtf



Скачать Ворон через торрент http://imgtag.ru/images/704thumbnailphp.png Скачать фильм Ворон через торрент бесплантно в хорошем качестве Описание: Рассказ о последних днях жизни Эдгара Аллана По. Знаменитый поэт преследует серийного убийцу, чьи преступления очень похожи на ... 5 10 3
Info! Золотая раздача, скачанное не засчитывается.
Торрент: Зарегистрирован [2012-08-13 20:32] · скачан: 22 раз
Статус: √ проверено
Размер: 26.39 GB
Как cкачать? Как скачать Ворон через торрент | qTorrent

% Раздел Тема Автор DL S | L
Фильмы [HD 720p, 1080p] (Хороший звук DUB, MVO) [ 5.39 GB ] Ворон / The Raven [2012 BDRip 720p] [Rus Transfer] Dub + 2xAVO - KORSAR kisa1980 Скачать
1 | 0
Фильмы [HD 720p, 1080p] (Хороший звук DUB, MVO) [ 8.93 GB ] Ворон / The Raven [2012 BDRip 1080p] [Rus Transfer] Dub + 2xAVO - KORSAR kisa1980 Скачать
1 | 0
Фильмы [HD 720p, 1080p] (Хороший звук DUB, MVO) [ 4.54 GB ] Ворон / The Raven [2012 BDRip 720p by msltel] DUB AVO msltel Скачать
1 | 0
Фильмы [HD 720p, 1080p] (Хороший звук DUB, MVO) [ 12.93 GB ] Ворон / The Raven [2012 BDRip 1080p by msltel] DUB AVO msltel Скачать
1 | 0
Фильмы (Blu-ray, BD-Remux, HDDVD) [ 38.51 GB ] Ворон / The Raven [2011 Blu-ray 1080p] - [] sheker187 Скачать
1 | 0
Фильмы [HD 720p, 1080p] (Хороший звук DUB, MVO) [ 6.22 GB ] Ворон / The Raven [2012 BDRip 720p DUB + Оригинал+Укр] AlexKa Скачать
1 | 0
Фильмы 2012 [ 1.37 GB ] Ворон / The Raven [2012 HDRip] DUB |лицензия| Mr. Freeman Скачать
1 | 0

28-11-2019 20:33  

Отключить всю рекламу на сайте

13-08-2012 21:56 Ворон Скачать торрент  

Отличный детектив, подумал сначала про раздвоение личности, но сюжет обернулся иначе, жаль концовка печальна...pb.wtf



04-11-2012 15:32 Ворон Скачать торрент  

Млин, дайте скачать!!! Уже неделю качаю!!!pb.wtf



    Дорогой пользователь! Огромная просьба, поблагодарите релизера, оцените раздачу и оставьте свои комментарий, если Вы скачали Ворон через торрент бесплатно! Внесите свою лепту в развитие PiratBit!
    Комментировать посты могут только пользователи прошедшие не сложную регистрацию
    Показать сообщения:    

    Ворон через торрент
    Скачать бесплатно Ворон
    Ворон скачать торрент
    Ворон смотреть онлайн
    Cкачать фильм Ворон бесплатно
    Ворон скачать торрент в хорошем качестве
    Ворон смотреть онлайн бесплатно в хорошем качестве


    Вы не можете начинать темы
    Вы не можете отвечать на сообщения
    Вы не можете редактировать свои сообщения
    Вы не можете удалять свои сообщения
    Вы не можете голосовать в опросах
    Вы не можете прикреплять файлы к сообщениям
    Вы можете скачивать файлы