Мега распродажа FORZA HORIZON 4 ULTIMATE+ВСЕ DLC+ОНЛАЙН всего за 499р. 349 руб. (супер цена). Внимание количество ограничено!!!

Лицензия

30

iTunes

мы

iTunes

1

1 сезон

Чернобыль

1 сезон

Ральф против интернета

MVO

Покемон. Детектив Пикачу

8 сезон

Игра престолов

iTunes

1+1

ИГРА 18+

pack

ВАЖНО

!!Акция!!

Alien_RageХит недели

RePack

Resident Evil 21
pack

RePack

Metro:Exodus

!!Акция!!

Alien_Rage

RePack

fifa19

RePack

Assassins Creed: Odyssey

RePack

NEED FOR SPEED™ PAYBACK

3 сезон

9 сезон

Бесстыжие 9 сезон

Все сериалы

все сериалы на PB.wtf

RePack

FAR CRY 5
Ребята, катастрофически не хватает 2730р. для оплаты серверов за МАЙ (всвязи с блокировками трафик упал в 3 раза), 1-2р., выручайте.
  

Братья / Brothers (Джим Шеридан) [2009 г., триллер, драма, военный, BDRip-AVC, Профессиональный (многоголосый)] pb.wtf

Братья через торрент pb.wtf

Размер: 2.13 GB | Добавлен: 6 лет 10 мес. назад | Торрент скачан:412 раз
Скачать  

14-08-2012 06:19 Братья Скачать торрент  

Братья / Brothers
«Если бы ты знала, через что я прошел, чтобы вернуться к тебе.»

Год выпуска: 2009
Страна: США/ Lionsgate, Michael De Luca Productions
Жанр: триллер, драма, военный
Продолжительность: 01:44:37
Перевод: Профессиональный (многоголосый)
Режиссер: Джим Шеридан
Продюссер: Сигурйон Сигватссон, Майкл Де Лука, Райан Кэвэна
Сценарий: Дэвид Бениофф, Сюзанна Бир, Андерс Томас Йенсен
Бюджет: $26 000 000
Премьера в мире: 3 декабря 2009

В ролях: Тоби Магуайр, Джейк Джилленхол, Натали Портман, Сэм Шепард, Мэр Уиннингхэм, Бэйли Мэдисон, Тейлор Джир, Патрик Флюгер, Клифтон Коллинз мл., Кэри Маллиган
Описание: Два брата... Они так не похожи друг на друга. Старший, Сэм — бравый офицер, любящий муж и отец. А младший, Томми, мечется по жизни, словно ходит по лезвию бритвы. Уезжая добровольцем на войну в Афганистан, Сэм просит Томми позаботиться о детях и жене Грейс. Проходит время, от Сэма нет вестей. Его считают без вести пропавшим. Томми, как может, утешает Грейс. Незаметно между ними вспыхивает чувство. Но однажды Сэм возвращается...
Качество: BDRip-AVC
Формат: MKV
Видео кодек: H.264x
Аудио кодек: AC3
Видео: H.264, 1168x488 (2,40:1), 23,976 кадр/сек, 2018 Кбит/сек, 0.148 bit/pixel
Аудио#1: AC3, 6 ch., 48 kHz, ~448.00 kbps | RUS
Аудио#2: AC3, 6 ch., 48 kHz, ~448.00 kbps | ENG


Уникальный идентификатор : 232111993911210677728155176852038484273 (0xAE9F24DA123BE0DCA21154D4029E0131)
Полное имя : C:\Documents and Settings\Admin\Рабочий стол\торы\Brothers.2009.P.BDRip.x264.potroks.mkv
Формат : Matroska
Размер файла : 2,13 Гбайт
Продолжительность : 1 ч. 44 м.
Общий поток : 2915 Кбит/сек
Название фильма : -=POTROKS=-
Дата кодирования : UTC 2012-02-03 17:18:25
Программа кодирования : mkvmerge v5.0.1 ('Es ist Sommer') built on Oct 9 2011 11:55:43
Библиотека кодирования : libebml v1.2.2 + libmatroska v1.3.0

Видео
Идентификатор : 1
Формат : AVC
Формат/Информация : Advanced Video Codec
Профиль формата : High@L4.1
Параметр CABAC формата : Да
Параметр ReFrames формата : 10 кадров
Идентификатор кодека : V_MPEG4/ISO/AVC
Продолжительность : 1 ч. 44 м.
Битрейт : 2018 Кбит/сек
Ширина : 1168 пикс.
Высота : 488 пикс.
Соотношение сторон : 2,35:1
Частота кадров : 23,976 кадр/сек
Цветовое пространство : YUV
Подвыборка цветности : 4:2:0
Битовая глубина : 8 бит
Тип развёртки : Прогрессивная
Бит/(Пиксели*Кадры) : 0.148
Размер потока : 1,43 Гбайт (67%)
Заголовок : Brothers.2009.P.BDRip.x264.potroks
Библиотека кодирования : x264 core 115 r1937 aa21558
Настройки программы : cabac=1 / ref=10 / deblock=1:0:0 / analyse=0x3:0x133 / me=umh / subme=10 / psy=1 / psy_rd=1.00:0.10 / mixed_ref=1 / me_range=32 / chroma_me=1 / trellis=2 / 8x8dct=1 / cqm=0 / deadzone=21,11 / fast_pskip=1 / chroma_qp_offset=-3 / threads=6 / sliced_threads=0 / nr=0 / decimate=1 / interlaced=0 / bluray_compat=0 / constrained_intra=0 / bframes=5 / b_pyramid=2 / b_adapt=2 / b_bias=0 / direct=3 / weightb=1 / open_gop=0 / weightp=2 / keyint=250 / keyint_min=23 / scenecut=40 / intra_refresh=0 / rc_lookahead=60 / rc=2pass / mbtree=1 / bitrate=2018 / ratetol=1.0 / qcomp=0.60 / qpmin=0 / qpmax=69 / qpstep=4 / cplxblur=20.0 / qblur=0.5 / ip_ratio=1.40 / aq=1:1.00

Аудио #1
Идентификатор : 2
Формат : AC-3
Формат/Информация : Audio Coding 3
Расширение режима : CM (complete main)
Идентификатор кодека : A_AC3
Продолжительность : 1 ч. 44 м.
Вид битрейта : Постоянный
Битрейт : 448 Кбит/сек
Каналы : 6 каналов
Расположение каналов : Front: L C R, Side: L R, LFE
Частота : 48,0 КГц
Битовая глубина : 16 бит
Метод сжатия : С потерями
Размер потока : 335 Мбайт (15%)
Заголовок : MVO [AC3, 5.1 ch., 448 kbps]
Язык : Russian

Аудио #2
Идентификатор : 3
Формат : AC-3
Формат/Информация : Audio Coding 3
Расширение режима : CM (complete main)
Идентификатор кодека : A_AC3
Продолжительность : 1 ч. 44 м.
Вид битрейта : Постоянный
Битрейт : 448 Кбит/сек
Каналы : 6 каналов
Расположение каналов : Front: L C R, Side: L R, LFE
Частота : 48,0 КГц
Битовая глубина : 16 бит
Метод сжатия : С потерями
Размер потока : 335 Мбайт (15%)
Заголовок : Оригинал [AC3, 5.1 ch., 448 kbps]
Язык : English

Текст #1
Идентификатор : 4
Формат : UTF-8
Идентификатор кодека : S_TEXT/UTF8
Идентификатор кодека/Информация : UTF-8 Plain Text
Язык : English

Текст #2
Идентификатор : 5
Формат : UTF-8
Идентификатор кодека : S_TEXT/UTF8
Идентификатор кодека/Информация : UTF-8 Plain Text
Язык : Russian

pb.wtf



Скачать Братья через торрент http://pic.kartinco.top/images/1/2igsq4hkia.jpg Скачать фильм Братья через торрент бесплантно в хорошем качестве Описание: Два брата... Они так не похожи друг на друга. Старший, Сэм — бравый офицер, любящий муж и отец. А младший, Томми, мечется по ... 8 10 5
Info! Золотая раздача, скачанное не засчитывается.
Торрент: Зарегистрирован [2012-08-14 06:19] · скачан: 412 раз
Статус: √ проверено
Размер: 2.13 GB
Как cкачать? Как скачать Братья через торрент | qTorrent

% Раздел Тема Автор DL S | L
T Фильмы (мультфильмы) cо спонсором показа (Новинки AVI/MKV) [ 1.23 GB ] Неизвестный случай с братьями Баш / The Unauthorized Bash Brothers Experience [2019 короткометражка музыка WEB-DL 720p] MVO ["Синема УС"] bober100 Скачать
2 | 0
T Фильмы (мультфильмы) cо спонсором показа (Новинки AVI/MKV) [ 500 MB ] Неизвестный случай с братьями Баш / The Unauthorized Bash Brothers Experience [2019 короткометражка музыка WEB-DLRip] MVO ["Синема УС"] bober100 Скачать
1 | 0
Фильмы (HD 720p, 1080p) (48-60 fps) [ 11.41 GB ] Братья Систерс / The Sisters Brothers [2018 BDRip 720p 60 fps] sheker187 Скачать
2 | 0
Фильмы 2018 [DVDrip, WEB-DLRip, HDrip] (DUB, MVO) [ 2.13 GB ] Братья Систерс / The Sisters Brothers [2018 BDRip] - Twi7ter Скачать
27 | 1
Фильмы (HD 720p, 1080p) (48-60 fps) [ 13.49 GB ] Братья Гримм / The Brothers Grimm [2005 BDRip - HEVC 1080p 12 bit 60 FPS] dd2d3 Скачать
2 | 0
Ultra HD (UHD: 2K, 4K, 8K) — видео сверхвысокой чёткости [ 48.34 GB ] Сводные братья / Step Brothers [2008 UHD BD Remux 2160p] [Расширенная версия] [HDR] DUB bober100 Скачать
1 | 0
Фильмы 2018 [DVDrip, WEB-DLRip, HDrip] (DUB, MVO) [ 1.46 GB ] Братья Систерс / The Sisters Brothers [2018 BDRip] - Twi7ter Скачать
11 | 0


>> Регистрируемся здесь <<






Отзывы и комментарии о схеме читаем и пишем здесь: ---> Отзывы и комментарии о схеме

Новые благодарочки в телеграм довольных пользователей:
скриншот   скриншот   скриншот   скриншот   скриншот
    Дорогой пользователь! Огромная просьба, поблагодарите релизера, оцените раздачу и оставьте свои комментарий, если Вы скачали Братья через торрент бесплатно! Внесите свою лепту в развитие PiratBit!
    Комментировать посты могут только пользователи прошедшие не сложную регистрацию
    Показать сообщения:    

    Братья через торрент
    Скачать бесплатно Братья
    Братья скачать торрент
    Братья смотреть онлайн
    Cкачать фильм Братья бесплатно
    Братья скачать торрент в хорошем качестве
    Братья смотреть онлайн бесплатно в хорошем качестве


    Вы не можете начинать темы
    Вы не можете отвечать на сообщения
    Вы не можете редактировать свои сообщения
    Вы не можете удалять свои сообщения
    Вы не можете голосовать в опросах
    Вы не можете прикреплять файлы к сообщениям
    Вы можете скачивать файлы