MEGA SALE -50% FORZA HORIZON 4 ULTIMATE+ВСЕ DLC+ОНЛАЙН всего за 599р. 299 руб. (супер цена). Внимание количество ограничено!!!

iTunes

1+1

iTunes

мы

iTunes

1

iTunes

Чернобыль

iTunes

Ральф против интернета

Лицензия

ПШазам

Лицензия

Игра престолов

Лицензия

30
pack

ВАЖНО

!!Акция!!

Alien_RageХит недели

RePack

Resident Evil 21

ИГРА 18+

pack

RePack

Metro:Exodus

!!Акция!!

Alien_Rage

RePack

fifa19

RePack

Assassins Creed: Odyssey

RePack

NEED FOR SPEED™ PAYBACK

3 сезон

9 сезон

Бесстыжие 9 сезон

Все сериалы

все сериалы на PB.wtf

RePack

FAR CRY 5
Ребята, катастрофически не хватает 7730р. для оплаты серверов за АВГУСТ (всвязи с блокировками трафик упал в 3 раза), 1-2р., выручайте.
  

Плохой лейтенант / Bad Lieutenant (Абель Феррара) [1992 г., драма, криминал, BDRip, Профессиональный (многоголосый)] pb.wtf

Плохой лейтенант через торрент pb.wtf

Размер: 1.45 GB | Добавлен: 7 лет 1 мес. назад | Торрент скачан:71 раз
Скачать  

14-08-2012 07:41 Плохой лейтенант Скачать торрент  

Плохой лейтенант / Bad Lieutenant

Год выпуска: 1992
Страна: США
Жанр: драма, криминал
Продолжительность: 01:36:13
Перевод: Профессиональный (многоголосый) + Авторский одноголосый (А. Гаврилов)

Режиссер: Абель Феррара
Премьера в мире: 16 сентября 1992

В ролях: Харви Кейтел, Виктор Арго, Пол Калдерон, Леонард Томас, Робин Берроуз, Фрэнки Торн , Виктория Бэстел, Пол Хипп, Брайан МакЭлрой, Зои Тамарлэйн Лунд

Описание: Фильм о трудах и заботах оперуполномоченного нью-йоркской полиции. Но плохой лейтенант — это самый настоящий подонок. Он продаёт изъятые у барыг наркотики, в служебное время регулярно предаётся разврату, отнимает награбленное у грабителей, активно употребляет наркотики сам, а ворованные денежки проигрывает в бейсбольном тотализаторе.

Настоящий, без прикрас, слуга закона: наркоман, игрок, вор, убийца. Полисмен. Однако даже у настоящего подонка нет-нет да и шевельнётся в самой глубине сгнившей души что-то человеческое. Так происходит и здесь, когда лейтенант с корыстными целями впрягается в расследование по делу изнасилованной католической монашки.



Качество: BDRip
Формат: AVI
Видео кодек: XviD
Аудио кодек: AC3
Видео: 720x400 (1.80:1), 23.976 fps, 1573 kbps, 0.228 bit/pixel
Аудио#1: 48 kHz, AC3 5.1, 384.00 kbps (Многоголосый)
Аудио#2: 48 kHz, AC3 2.0, 192.00 kbps (А. Гаврилов)

Общее
Полное имя : D:\Раздачи\Bad Lieutenant.1992.BDRip.avi
Формат : AVI
Формат/Информация : Audio Video Interleave
Размер файла : 1,45 Гбайт
Продолжительность : 1 ч. 36 м.
Общий поток : 2163 Кбит/сек
Название фильма : Плохой лейтенант / Bad Lieutenant (1992) BDRip
Режиссёр : Rulya74 [1080p]
Программа кодирования : VirtualDubModRus 1.5.10.2 (build 2542/release)
Библиотека кодирования : VirtualDubMod build 2542/release

Видео
Идентификатор : 0
Формат : MPEG-4 Visual
Профиль формата : Advanced Simple@L5
Параметр BVOP формата : 1
Параметр QPel формата : Нет
Параметр GMC формата : Без точки перехода
Параметр матрицы формата : Default (MPEG)
Идентификатор кодека : XVID
Идентификатор кодека/Подсказка : XviD
Продолжительность : 1 ч. 36 м.
Битрейт : 1573 Кбит/сек
Ширина : 720 пикселей
Высота : 400 пикселей
Соотношение сторон : 16:9
Частота кадров : 23,976 кадра/сек
Цветовое пространство : YUV
Субдискретизация насыщенности : 4:2:0
Битовая глубина : 8 бит
Тип развёртки : Прогрессивная
Метод сжатия : С потерями
Бит/(Пиксели*Кадры) : 0.228
Размер потока : 1,06 Гбайт (73%)
Библиотека кодирования : XviD 1.2.1 (UTC 2008-12-04)

Аудио #1
Идентификатор : 1
Формат : AC-3
Формат/Информация : Audio Coding 3
Расширение режима : CM (complete main)
Идентификатор кодека : 2000
Продолжительность : 1 ч. 36 м.
Вид битрейта : Постоянный
Битрейт : 384 Кбит/сек
Каналы : 6 каналов
Расположение каналов : Front: L C R, Side: L R, LFE
Частота : 48,0 КГц
Битовая глубина : 16 бит
Метод сжатия : С потерями
Размер потока : 264 Мбайт (18%)
Выравнивание : Разделение по промежуткам
Продолжительность промежутка : 42 мс. (1,00 видеокадр)
Время предзагрузки промежутка : 500 мс.

Аудио #2
Идентификатор : 2
Формат : AC-3
Формат/Информация : Audio Coding 3
Расширение режима : CM (complete main)
Идентификатор кодека : 2000
Продолжительность : 1 ч. 36 м.
Вид битрейта : Постоянный
Битрейт : 192 Кбит/сек
Каналы : 2 канала
Расположение каналов : Front: L R
Частота : 48,0 КГц
Битовая глубина : 16 бит
Метод сжатия : С потерями
Размер потока : 132 Мбайт (9%)
Выравнивание : Разделение по промежуткам
Продолжительность промежутка : 42 мс. (1,00 видеокадр)
Время предзагрузки промежутка : 500 мс.
pb.wtf



Скачать Плохой лейтенант через торрент http://pic.kartinco.top/images/1/o1m82ly5e1.png Скачать фильм Плохой лейтенант через торрент бесплантно в хорошем качестве Описание: Фильм о трудах и заботах оперуполномоченного нью-йоркской полиции. Но плохой лейтенант — это самый настоящий подонок. Он продаёт ... 10 10 1
Info! Золотая раздача, скачанное не засчитывается.
Торрент: Зарегистрирован [2012-08-14 07:41] · скачан: 71 раз
Статус: √ проверено
Размер: 1.45 GB
Как cкачать? Как скачать Плохой лейтенант через торрент | qTorrent

% Раздел Тема Автор DL S | L
Фильмы (Blu-ray, BD-Remux, HDDVD) [ 18.11 GB ] Плохой лейтенант / The Bad Lieutenant: Port of Call New Orleans [2009 BD Remux 1080p] MVO [ Blu-Ray] bober100 Скачать
1 | 0
Фильмы (Blu-ray, BD-Remux, HDDVD) [ 22.86 GB ] Плохой лейтенант / Bad Lieutenant [1992 BDRemux 1080p] MVO+AVO Ворон Скачать
1 | 0
Фильмы [HD 720p, 1080p] (Хороший звук DUB, MVO) [ 5.76 GB ] Плохой лейтенант / The Bad Lieutenant: Port of Call - New Orleans [2009 BDRip 720p от _denis_100 / NNNB] MVO AVO _denis_100 Скачать
1 | 0
Фильмы до 2000 г. [ 1.46 GB ] Плохой лейтенант / Bad Lieutenant [1992 HDRip-AVC MVO AVO SUB] от R.G. PiratFilms кэп Скачать
1 | 0
Фильмы 2009 [ 2.56 GB ] Плохой лейтенант / The Bad Lieutenant - Port of Call New Orleans [2009 BDRip] -=BIGBOSS=- Скачать
1 | 0
Фильмы 2009 [ 1.36 GB ] Плохой лейтенант / Bad Lieutenant: Port of Call New Orleans [2009 DVDRip][ лицензия ] SD Скачать
1 | 0
Фильмы (DVD фильмы) [ 7.53 GB ] Плохой лейтенант / Bad Lieutenant: Port of Call New Orleans [2009 DVD9] DEVI Скачать
1 | 0


>> Регистрируемся здесь <<






Отзывы и комментарии о схеме читаем и пишем здесь: ---> Отзывы и комментарии о схеме

Новые благодарочки в телеграм довольных пользователей:
скриншот   скриншот   скриншот   скриншот   скриншот
    Дорогой пользователь! Огромная просьба, поблагодарите релизера, оцените раздачу и оставьте свои комментарий, если Вы скачали Плохой лейтенант через торрент бесплатно! Внесите свою лепту в развитие PiratBit!
    Комментировать посты могут только пользователи прошедшие не сложную регистрацию
    Показать сообщения:    

    Плохой лейтенант через торрент
    Скачать бесплатно Плохой лейтенант
    Плохой лейтенант скачать торрент
    Плохой лейтенант смотреть онлайн
    Cкачать фильм Плохой лейтенант бесплатно
    Плохой лейтенант скачать торрент в хорошем качестве
    Плохой лейтенант смотреть онлайн бесплатно в хорошем качестве


    Вы не можете начинать темы
    Вы не можете отвечать на сообщения
    Вы не можете редактировать свои сообщения
    Вы не можете удалять свои сообщения
    Вы не можете голосовать в опросах
    Вы не можете прикреплять файлы к сообщениям
    Вы можете скачивать файлы