Ссылка на приватное зеркало нашего сайта всего за 1$. Внимание количество ограничено!!!

2 сезон

iTunes

1 сезон

1

iTunes

iTunes

iTunes

1 сезон

RePack

30

ИГРА 18+

pack

ВАЖНО

!!Акция!!

Alien_RageХит недели

RePack

MK11
pack

Забери бонус

RePack

jed

!!Акция!!

Alien_Rage

RePack

fifa19

RePack

Assassins Creed: Odyssey

RePack

NEED FOR SPEED™ PAYBACK

4 сезон

9 сезон

Бесстыжие 9 сезон

Все сериалы

все сериалы на PB.wtf

RePack

FAR CRY 5
  

Готика / Gothika (Матьё Кассовиц) [2003 г., Ужасы, Триллер, Детектив, BDRip (720p)] / DUB + MVO + DVO (1+1, Интер) + AVO (Е. Рудой) + Original + Commentary + SUB (Eng) pb.wtf

Готика через торрент pb.wtf

Размер: 7.94 GB | Добавлен: 8 лет 2 мес. назад | Торрент скачан:31 раз
Скачать  

14-08-2012 21:00 Готика Скачать торрент  

Готика / Gothika

Год выпуска: 2003
Страна: США / Temple Hill Entertainment, Cowtown Cinema Ventures, Nationlight Productions
Жанр: Ужасы, Триллер, Детектив
Продолжительность: 01:38:07
Перевод: Дубляж + Оригинал

Режиссер: Матьё Кассовиц

В ролях: Холли Берри, Роберт Дауни мл., Чарльз С. Даттон, Джон Кэрролл Линч, Бернард Хилл, Пенелопа Крус, Дориан Хэрвуд, Бронуэн Мэнтел, Кэтлин Мэкки, Мэттью Дж. Тейлор

Описание: Фильм повествует о женщине-психиатре, которая однажды оказывается пациенткой больницы для невменяемых преступников, где она прежде работала.
Вдобавок ко всему, ее обвиняют в совершении жестокого убийства, о котором она ничего не помнит. Пытаясь разобраться в происходящем, она сталкивается с необъяснимыми мистическими происшествиями…

Качество: BDRip (720p)
Формат: MKV
Видео кодек: AVC
Аудио кодек: DTS, AC3
Видео: AVC, 1280x692 (1.850), 23.976 fps, 6 410 Kbps
Аудио#1: Русский, AC3, 6 каналов ~640 kbps - |Дубляж|
Аудио#2: Русский, DTS, 6 каналов ~1536 kbps |Многоголосый закадровый|
Аудио#3: Русский, DTS, 6 каналов ~1536 kbps |Одноголосый закадровый, Е. Рудой|
Аудио#4: Украинский, AC3, 2 канала ~256 kbps |Двухголосый закадровый, 1+1|
Аудио#5: Украинский, AC3, 2 канала ~192 kbps |Двухголосый закадровый, "ТакТребаПродакшн" по заказу телекомпании - ИHTEP|
Аудио#6: Английский, AC3, 6 каналов ~640 kbps avg
Аудио#7: Английский, AC3, 2 канала ~192 kbps avg |Commentary|
Субтитры: Английские


Общее
Уникальный идентификатор : 188069950516457536200627195714420377628 (0x8D7CF4768C6CF2C4B0865D8650CC881C)
Полное имя : Gothika.2003.720р.BluRay..mkv
Формат : Matroska
Версия формата : Version 2
Размер файла : 7,94 Гбайт
Продолжительность : 1 ч. 38 м.
Общий поток : 11,6 Мбит/сек
Название фильма : Gothika (2003) - Release for HDCLUB
Дата кодирования : UTC 2012-08-05 17:54:02
Программа кодирования : mkvmerge v5.6.0 ('Kenya Kane') built on May 27 2012 16:44:04
Библиотека кодирования : libebml v1.2.3 + libmatroska v1.3.0

Видео
Идентификатор : 1
Формат : AVC
Формат/Информация : Advanced Video Codec
Профиль формата : High@L4.1
Параметр CABAC формата : Да
Параметр ReFrames формата : 9 кадров
Идентификатор кодека : V_MPEG4/ISO/AVC
Продолжительность : 1 ч. 38 м.
Битрейт : 6410 Кбит/сек
Ширина : 1280 пикселей
Высота : 692 пикселя
Соотношение сторон : 1,85:1
Частота кадров : 23,976 кадра/сек
Цветовое пространство : YUV
Субдискретизация насыщенности : 4:2:0
Битовая глубина : 8 бит
Тип развёртки : Прогрессивная
Бит/(Пиксели*Кадры) : 0.302
Размер потока : 4,39 Гбайт (55%)
Заголовок : Release for HDCLUB
Библиотека кодирования : x264 core 125 r2200 999b753
Настройки программы : cabac=1 / ref=9 / deblock=1:-1:-1 / analyse=0x3:0x133 / me=tesa / subme=11 / psy=1 / psy_rd=1.00:0.00 / mixed_ref=1 / me_range=32 / chroma_me=1 / trellis=2 / 8x8dct=1 / cqm=0 / deadzone=21,11 / fast_pskip=1 / chroma_qp_offset=-2 / threads=12 / lookahead_threads=2 / sliced_threads=0 / nr=0 / decimate=1 / interlaced=0 / bluray_compat=0 / constrained_intra=0 / bframes=10 / b_pyramid=2 / b_adapt=2 / b_bias=0 / direct=3 / weightb=1 / open_gop=0 / weightp=2 / keyint=240 / keyint_min=24 / scenecut=40 / intra_refresh=0 / rc=crf / mbtree=0 / crf=17.0 / qcomp=0.60 / qpmin=0 / qpmax=69 / qpstep=4 / ip_ratio=1.40 / pb_ratio=1.30 / aq=1:0.80
Язык : English
Default : Да
Forced : Нет

Аудио #1
Идентификатор : 2
Формат : AC-3
Формат/Информация : Audio Coding 3
Расширение режима : CM (complete main)
Параметр Endianness формата : Big
Идентификатор кодека : A_AC3
Продолжительность : 1 ч. 38 м.
Вид битрейта : Постоянный
Битрейт : 640 Кбит/сек
Каналы : 6 каналов
Расположение каналов : Front: L C R, Side: L R, LFE
Частота : 48,0 КГц
Битовая глубина : 16 бит
Метод сжатия : С потерями
Размер потока : 449 Мбайт (6%)
Заголовок : (AC3 5.1 @ 640 kbps - Дубляж)
Язык : Russian
Default : Да
Forced : Нет

Аудио #2
Идентификатор : 3
Формат : DTS
Формат/Информация : Digital Theater Systems
Идентификатор кодека : A_DTS
Продолжительность : 1 ч. 38 м.
Вид битрейта : Постоянный
Битрейт : 1510 Кбит/сек
Каналы : 6 каналов
Расположение каналов : Front: L C R, Side: L R, LFE
Частота : 48,0 КГц
Битовая глубина : 24 бит
Метод сжатия : С потерями
Размер потока : 1,03 Гбайт (13%)
Заголовок : (DTS 5.1 @ 1510 kbps - Многоголосый закадровый)
Язык : Russian
Default : Нет
Forced : Нет

Аудио #3
Идентификатор : 4
Формат : DTS
Формат/Информация : Digital Theater Systems
Идентификатор кодека : A_DTS
Продолжительность : 1 ч. 38 м.
Вид битрейта : Постоянный
Битрейт : 1510 Кбит/сек
Каналы : 6 каналов
Расположение каналов : Front: L C R, Side: L R, LFE
Частота : 48,0 КГц
Битовая глубина : 24 бит
Метод сжатия : С потерями
Размер потока : 1,03 Гбайт (13%)
Заголовок : (DTS 5.1 @ 1510 kbps - Одноголосый закадровый, Е.Рудой)
Язык : Russian
Default : Нет
Forced : Нет

Аудио #4
Идентификатор : 5
Формат : AC-3
Формат/Информация : Audio Coding 3
Расширение режима : CM (complete main)
Параметр Endianness формата : Big
Идентификатор кодека : A_AC3
Продолжительность : 1 ч. 38 м.
Вид битрейта : Постоянный
Битрейт : 256 Кбит/сек
Каналы : 2 канала
Расположение каналов : Front: L R
Частота : 48,0 КГц
Битовая глубина : 16 бит
Метод сжатия : С потерями
Размер потока : 180 Мбайт (2%)
Заголовок : (AC3 2.0 @ 256 kbps -Двухголосый закадровый, 1+1)
Язык : Ukrainian
Default : Нет
Forced : Нет

Аудио #5
Идентификатор : 6
Формат : AC-3
Формат/Информация : Audio Coding 3
Расширение режима : CM (complete main)
Параметр Endianness формата : Big
Идентификатор кодека : A_AC3
Продолжительность : 1 ч. 38 м.
Вид битрейта : Постоянный
Битрейт : 192 Кбит/сек
Каналы : 2 канала
Расположение каналов : Front: L R
Частота : 48,0 КГц
Битовая глубина : 16 бит
Метод сжатия : С потерями
Размер потока : 135 Мбайт (2%)
Заголовок : (AC3 2.0 @ 192 kbps -Двухголосый закадровый,"ТакТребаПродакшн" на замовлення телекомпанії - IHTEP)
Язык : Ukrainian
Default : Нет
Forced : Нет

Аудио #6
Идентификатор : 7
Формат : AC-3
Формат/Информация : Audio Coding 3
Расширение режима : CM (complete main)
Параметр Endianness формата : Big
Идентификатор кодека : A_AC3
Продолжительность : 1 ч. 38 м.
Вид битрейта : Постоянный
Битрейт : 640 Кбит/сек
Каналы : 6 каналов
Расположение каналов : Front: L C R, Side: L R, LFE
Частота : 48,0 КГц
Битовая глубина : 16 бит
Метод сжатия : С потерями
Размер потока : 449 Мбайт (6%)
Заголовок : (AC3 5.1 @ 640 kbps - Original)
Язык : English
Default : Нет
Forced : Нет

Аудио #7
Идентификатор : 8
Формат : AC-3
Формат/Информация : Audio Coding 3
Профиль формата : Dolby Digital
Расширение режима : CM (complete main)
Параметр Endianness формата : Big
Идентификатор кодека : A_AC3
Продолжительность : 1 ч. 38 м.
Вид битрейта : Постоянный
Битрейт : 192 Кбит/сек
Каналы : 2 канала
Расположение каналов : Front: L R
Частота : 48,0 КГц
Битовая глубина : 16 бит
Метод сжатия : С потерями
Размер потока : 135 Мбайт (2%)
Заголовок : (AC3 2.0 @ 192 kbps - Commentary)
Язык : English
Default : Нет
Forced : Нет

Текст
Идентификатор : 9
Формат : UTF-8
Идентификатор кодека : S_TEXT/UTF8
Идентификатор кодека/Информация : UTF-8 Plain Text
Заголовок : SRT
Язык : English
Default : Нет
Forced : Нет

pb.wtf



Скачать Готика через торрент http://imgtag.ru/images/578bf2aabd965ee2d9e02c4a0.jpg Скачать фильм Готика через торрент бесплантно в хорошем качестве Описание: Фильм повествует о женщине-психиатре, которая однажды оказывается пациенткой больницы для невменяемых преступников, где она ... 4.6 10 10
Info! Золотая раздача, скачанное не засчитывается.
Торрент: Зарегистрирован [2012-08-14 21:00] · скачан: 31 раз
Статус: √ проверено
Размер: 7.94 GB
Как cкачать? Как скачать Готика через торрент | qTorrent

% Раздел Тема Автор DL S | L
Фильмы [HD 720p, 1080p] (Хороший звук DUB, MVO) [ 15.44 GB ] Готика / Gothika [2003 BDRip 1080p by msltel] DUB MVO 2 x AVO msltel Скачать
1 | 0
Фильмы [HD 720p, 1080p] (Хороший звук DUB, MVO) [ 5.83 GB ] Готика / Gothika [2003 BDRip 720p by msltel] DUB MVO 2 x AVO msltel Скачать
1 | 0
Фильмы 2001-2005 [ 3.77 GB ] Готика / Gothika [2003 BDRip-AVC by msltel] DUB MVO 2 x AVO msltel Скачать
1 | 0
Фильмы [HD 720p, 1080p] (Хороший звук DUB, MVO) [ 10.54 GB ] Американская готика / American Gothic [1987 BDRip 1080p by msltel] 2 x MVO AVO msltel Скачать
1 | 0
Фильмы [HD 720p, 1080p] (Хороший звук DUB, MVO) [ 3.78 GB ] Американская готика / American Gothic [1987 BDRip 720p by msltel] 2 x MVO AVO msltel Скачать
1 | 0
Фильмы до 2000 г. [ 2.12 GB ] Американская готика / American Gothic [1987 BDRip-AVC by msltel] 2 x MVO AVO msltel Скачать
1 | 0
Зарубежные сериалы [ 16.82 GB ] Американская готика / American Gothic / Сезон: 1 / Серии: 1-13 из 13 [2016 WEB-DL 720p] MVO [TVShows] bober100 Скачать
1 | 0

28-11-2019 20:33  

Отключить всю рекламу на сайте

15-08-2012 17:26 Готика Скачать торрент  

Фильм просто КЛАССНЫЙpb.wtf



    Дорогой пользователь! Огромная просьба, поблагодарите релизера, оцените раздачу и оставьте свои комментарий, если Вы скачали Готика через торрент бесплатно! Внесите свою лепту в развитие PiratBit!
    Комментировать посты могут только пользователи прошедшие не сложную регистрацию
    Показать сообщения:    

    Готика через торрент
    Скачать бесплатно Готика
    Готика скачать торрент
    Готика смотреть онлайн
    Cкачать фильм Готика бесплатно
    Готика скачать торрент в хорошем качестве
    Готика смотреть онлайн бесплатно в хорошем качестве


    Вы не можете начинать темы
    Вы не можете отвечать на сообщения
    Вы не можете редактировать свои сообщения
    Вы не можете удалять свои сообщения
    Вы не можете голосовать в опросах
    Вы не можете прикреплять файлы к сообщениям
    Вы можете скачивать файлы