Ссылка на приватное зеркало нашего сайта всего за 1$. Внимание количество ограничено!!!

2 сезон

iTunes

1 сезон

1

iTunes

iTunes

iTunes

1 сезон

RePack

30

ИГРА 18+

pack

ВАЖНО

!!Акция!!

Alien_RageХит недели

RePack

MK11
pack

Забери бонус

RePack

jed

!!Акция!!

Alien_Rage

RePack

fifa19

RePack

Assassins Creed: Odyssey

RePack

NEED FOR SPEED™ PAYBACK

4 сезон

9 сезон

Бесстыжие 9 сезон

Все сериалы

все сериалы на PB.wtf

RePack

FAR CRY 5
  

Военная разведка. Первый удар / Сезон: 2 / Серии: 1-8 из 8 (Алексей Праздников) [2012, военный фильм, приключения, DVD9] R5 Оригинал pb.wtf

Военная разведка. Первый удар через торрент pb.wtf

Размер: 7.79 GB | Добавлен: 8 лет 2 мес. назад | Торрент скачан:238 раз
Скачать  

15-08-2012 19:12 Военная разведка. Первый удар Скачать торрент  

Военная разведка. Первый удар
Год выпуска: 2012
Производство: Телепроект, кинокомпания "Gree"
Жанр: военный фильм, приключения
Продолжительность: 8 х ~00:51:00
Перевод: Оригинал
Субтитры: нет

Режиссёр: Алексей Праздников
В ролях: Павел Трубинер, Филипп Азаров, Степан Бекетов, Борис Щербаков, Сергей Кошонин, Артур Ваха, Линда Лазарева, Николай Буров, Аркадий Шароградский, Елена Купрашевич, Андрей Кузнецов, Мария Жиганова, Федор Черных, Дарья Воронцова, Наталья Ермолаева, Геннадий Меньшиков

Описание: План захвата СССР «Барбаросса» в действии. Фашисты широко шагают по оккупированным советским землям. Сначала нашим героям предстоит вырвать из лап врага захваченных на отдыхе советских ученых и их семьи. Почти невыполнимым заданием станет для них ликвидация стратегического советского завода на оккупированной немцами территории. Тонкой игры потребует миссия возвращения в немецкий тыл советского резидента, ведь нужно не только доставить его до места назначения, но и обеспечить ему безупречное алиби! Четвертым заданием наших разведчиков станет дестабилизация «нового экономического порядка», введенного немцами на новых землях рейха. Для этого нашим героям предстоит уничтожить не только «золотой» транспорт с рейхсмарками, но и ликвидировать «мозг» новой экономики — гаулейтера Белоруссии.
Как водится, разведчики столкнуться с умным и хитрым врагом и почти невыполнимыми заданиями, но отчаянная смелость, смекалка и верная дружба помогут им с честью выполнить все «особые поручения».



Тип релиза: DVD9 R5
Формат: DVD Video
Видео кодек: MPEG2
Аудио кодек: AC3
Видео: PAL 4:3 (720x576(0.231)) MPEG Video, 25,000 кадр/сек, 2470 Кбит/сек
Аудио: Russian (Dolby AC3, 2 ch) 192 Кбит/сек, 48,0 КГц
Title: Военная разведка
Size: 7.79 Gb ( 8 168 494,00 KBytes ) - DVD-9
Enabled regions: 1, 2, 3, 4, 5, 6, 7, 8
VTS_01 :
Play Length: 00:00:25+{00:00:25}+{00:00:25}
Video: PAL 4:3 (720x576) VBR
Audio:
Russian (Dolby AC3, 6 ch)
English (Dolby AC3, 6 ch)
English (Dolby AC3, 6 ch)
VTS_02 :
Play Length: 00:51:51
Video: PAL 16:9 (720x576) VBR, Auto Pan&Scan, Auto Letterboxed
Audio:
Russian, AC3, 2/0 (L,R) ch, 192 kbps, Delay 0 mSec
VTS_03 :
Play Length: 00:50:59
Video: PAL 16:9 (720x576) VBR, Auto Pan&Scan, Auto Letterboxed
Audio:
Russian (Dolby AC3, 2 ch)
VTS_04 :
Play Length: 00:50:37
Video: PAL 16:9 (720x576) VBR, Auto Pan&Scan, Auto Letterboxed
Audio:
Russian (Dolby AC3, 2 ch)
VTS_05 :
Play Length: 00:49:35
Video: PAL 16:9 (720x576) VBR, Auto Pan&Scan, Auto Letterboxed
Audio:
Russian (Dolby AC3, 2 ch)
VTS_06 :
Play Length: 00:51:27
Video: PAL 16:9 (720x576) VBR, Auto Pan&Scan, Auto Letterboxed
Audio:
Russian (Dolby AC3, 2 ch)
VTS_07 :
Play Length: 00:51:35
Video: PAL 16:9 (720x576) VBR, Auto Pan&Scan, Auto Letterboxed
Audio:
Russian (Dolby AC3, 2 ch)
VTS_08 :
Play Length: 00:51:14
Video: PAL 16:9 (720x576) VBR, Auto Pan&Scan, Auto Letterboxed
Audio:
Russian (Dolby AC3, 2 ch)
VTS_09 :
Play Length: 00:52:12
Video: PAL 16:9 (720x576) VBR, Auto Pan&Scan, Auto Letterboxed
Audio:
Russian (Dolby AC3, 2 ch)
Общее
Полное имя : Voennaya.razvedka.2012.O.DVD9\VIDEO_TS\VTS_06_1.VOB
Формат : MPEG-PS
Размер файла : 979 Мбайт
Продолжительность : 51 м.
Режим общего битрейта : Переменный
Общий поток : 2660 Кбит/сек
Видео
Идентификатор : 224 (0xE0)
Формат : MPEG Video
Версия формата : Version 2
Профиль формата : Main@Main
Параметр BVOP формата : Да
Параметр матрицы формата : Выборочная
Продолжительность : 51 м.
Вид битрейта : Переменный
Битрейт : 2415 Кбит/сек
Максимальный битрейт : 8000 Кбит/сек
Ширина : 720 пикселей
Высота : 576 пикселей
Соотношение сторон : 16:9
Частота кадров : 25,000 кадров/сек
Стандарт вещания : PAL
Цветовое пространство : YUV
Субдискретизация насыщенности : 4:2:0
Битовая глубина : 8 бит
Тип развёртки : Прогрессивная
Метод сжатия : С потерями
Бит/(Пиксели*Кадры) : 0.233
Размер потока : 889 Мбайт (91%)
Аудио
Идентификатор : 189 (0xBD)-128 (0x80)
Формат : AC-3
Формат/Информация : Audio Coding 3
Расширение режима : CM (complete main)
Режим смешивания : DVD-Video
Продолжительность : 51 м.
Вид битрейта : Постоянный
Битрейт : 192 Кбит/сек
Каналы : 2 канала
Расположение каналов : Front: L R
Частота : 48,0 КГц
Битовая глубина : 16 бит
Метод сжатия : С потерями
Размер потока : 70,7 Мбайт (7%)
Меню
pb.wtf



Скачать Военная разведка. Первый удар через торрент http://pic.kartinco.top/images/1/srnngnx78e.png Скачать фильм Военная разведка. Первый удар через торрент бесплантно в хорошем качестве Описание: План захвата СССР «Барбаросса» в действии. Фашисты широко шагают по оккупированным советским землям. Сначала нашим героям ... 8.3 10 3
Info! Золотая раздача, скачанное не засчитывается.
Торрент: Зарегистрирован [2012-08-15 19:12] · скачан: 238 раз
Статус: √ проверено
Размер: 7.79 GB
Как cкачать? Как скачать Военная разведка. Первый удар через торрент | qTorrent



Последний раз редактировалось: wekotila (2012-08-15 19:29), всего редактировалось 1 раз

28-11-2019 20:33  

Отключить всю рекламу на сайте

15-08-2012 19:25 Военная разведка. Первый удар Скачать торрент  

Спасибоpb.wtf



    Дорогой пользователь! Огромная просьба, поблагодарите релизера, оцените раздачу и оставьте свои комментарий, если Вы скачали Военная разведка. Первый удар через торрент бесплатно! Внесите свою лепту в развитие PiratBit!
    Комментировать посты могут только пользователи прошедшие не сложную регистрацию
    Показать сообщения:    

    Военная разведка. Первый удар через торрент
    Скачать бесплатно Военная разведка. Первый удар
    Военная разведка. Первый удар скачать торрент
    Военная разведка. Первый удар смотреть онлайн
    Cкачать фильм Военная разведка. Первый удар бесплатно
    Военная разведка. Первый удар скачать торрент в хорошем качестве
    Военная разведка. Первый удар смотреть онлайн бесплатно в хорошем качестве


    Вы не можете начинать темы
    Вы не можете отвечать на сообщения
    Вы не можете редактировать свои сообщения
    Вы не можете удалять свои сообщения
    Вы не можете голосовать в опросах
    Вы не можете прикреплять файлы к сообщениям
    Вы можете скачивать файлы