Ссылка на приватное зеркало нашего сайта всего за 1$. Внимание количество ограничено!!!

2 сезон

iTunes

1 сезон

1

2 сезон

2 сезон

iTunes

1 сезон

RePack

30

Новинка

ВАЖНО

ИГРА 18+

pack

RePack

MK11
pack

Забери бонус

RePack

jed

!!Акция!!

Alien_Rage

RePack

fifa19

RePack

Assassins Creed: Odyssey

RePack

NEED FOR SPEED™ PAYBACK

4 сезон

9 сезон

Бесстыжие 9 сезон

Все сериалы

все сериалы на PB.wtf

RePack

FAR CRY 5
  

Железный рыцарь / Ironclad (Джонатан Инглиш) [2011 г., боевик, приключения,Blu-ray, DUB (лицензия)] pb.wtf

Железный рыцарь через торрент pb.wtf

Размер: 23.07 GB | Добавлен: 8 лет 3 мес. назад | Торрент скачан:25 раз
Скачать  

16-08-2012 10:18 Железный рыцарь Скачать торрент  



Железный рыцарь / Ironclad
«И хлынет кровь»

Год выпуска: 2011
Страна: США, Германия, Великобритания
Жанр: боевик, приключения
Продолжительность: 02:00:45
Перевод: Дубляж (Лицензия)
Оригинальная аудиодорожка: английский
Cубтитры: Русские, Украинские
Тип релиза: Лицензия

Режиссер: Джонатан Инглиш
Продюссер: Эндрю Дж. Кертис, Джонатан Инглиш, Рик Бенаттар, ...
Сценарий: Эрик Кастел, Стивен МакДул, Джонатан Инглиш

Бюджет: $25 000 000
Премьера в мире: 4 марта 2011



В ролях:
Джеймс Пьюрфой, Кейт Мара, Пол Джаматти, Брайан Кокс, Джейсон Флеминг, Чарльз Дэнс, Дерек Джекоби, Маккензи Крук, Владимир Кулич, Джэми Формен


В 13-ом веке группа рыцарей Тамплиеров защищает Рочестерский замок от тирании короля Ионна.

Бонусы:
- Анонсы

Качество: Blu-ray disc
Формат: BDMV
Видео кодек: MPEG-4 AVC
Аудио кодек: DTS
Видео: MPEG-4 AVC Video /21,1 Мбит/сек/ 19992 kbps /1920x1080p / 23,976 fps / 16:9 / High Profile 4.1
Аудио#1: Russian / DTS-HD Master Audio / 5.1 / 48 kHz / 2159 kbps / 16-bit (DTS Core: 5.1 / 48 kHz / 1509 kbps / 16-bit) Дубляж
Аудио#2: English / DTS-HD High-Res Audio / 5.1 / 48 kHz / 2046 kbps / 16-bit (DTS Core: 5.1 / 48 kHz / 1509 kbps / 16-bit)

Общее
Полное имя : G:\Железный рыцарь Bly-ray
Формат : Blu-ray movie
Продолжительность : 2 ч. 0 м.
Режим общего битрейта : Переменный
Общий поток : 1 бит/сек

Видео
Идентификатор : 4113 (0x1011)
Идентификатор меню : 1 (0x1)
Формат : AVC
Формат/Информация : Advanced Video Codec
Профиль формата : High@L4.1
Параметр CABAC формата : Да
Параметр ReFrames формата : 4 кадра
Идентификатор кодека : 27
Продолжительность : 2 ч. 0 м.
Вид битрейта : Переменный
Битрейт : 21,1 Мбит/сек
Максимальный битрейт : 37,0 Мбит/сек
Ширина : 1920 пикселей
Высота : 1080 пикселей
Соотношение сторон : 16:9
Частота кадров : 23,976 кадра/сек
Стандарт вещания : NTSC
Цветовое пространство : YUV
Субдискретизация насыщенности : 4:2:0
Битовая глубина : 8 бит
Размер потока : 17,8 Гбайт (82%)
Основные цвета : BT.709
Характеристики трансфера : BT.709
Коэффициенты матрицы : BT.709
Оригинал : 00007.m2ts

Аудио #1
Идентификатор : 4352 (0x1100)
Идентификатор меню : 1 (0x1)
Формат : DTS
Формат/Информация : Digital Theater Systems
Профиль формата : MA / Core
Режим смешивания : Stream extension
Идентификатор кодека : 134
Продолжительность : 2 ч. 0 м.
Вид битрейта : Переменный
Битрейт : 1561 Кбит/сек / 1510 Кбит/сек
Каналы : 6 каналов
Расположение каналов : Front: L C R, Side: L R, LFE
Частота : 48,0 КГц
Битовая глубина : 16 бит
Метод сжатия : Без потерь / Lossy
Язык : Russian
Оригинал : 00007.m2ts

Аудио #2
Идентификатор : 4353 (0x1101)
Идентификатор меню : 1 (0x1)
Формат : DTS
Формат/Информация : Digital Theater Systems
Профиль формата : HRA / Core
Режим смешивания : Stream extension
Идентификатор кодека : 133
Продолжительность : 2 ч. 0 м.
Вид битрейта : Постоянный
Битрейт : 2047 Кбит/сек / 1510 Кбит/сек
Каналы : 6 каналов
Расположение каналов : Front: L C R, Side: L R, LFE
Частота : 48,0 КГц
Битовая глубина : 16 бит
Метод сжатия : С потерями
Размер потока : 1,73 Гбайт (8%)
Язык : English
Оригинал : 00007.m2ts

Текст #1
Идентификатор : 4608 (0x1200)
Идентификатор меню : 1 (0x1)
Формат : PGS
Идентификатор кодека : 144
Продолжительность : 2 ч. 0 м.
Язык : Russian
Оригинал : 00007.m2ts

Текст #2
Идентификатор : 4609 (0x1201)
Идентификатор меню : 1 (0x1)
Формат : PGS
Идентификатор кодека : 144
Продолжительность : 2 ч. 0 м.
Язык : Ukrainian
Оригинал : 00007.m2ts

Меню
00:00:00.000 : Chapter 1
00:04:28.518 : Chapter 2
00:07:32.994 : Chapter 3
00:12:52.438 : Chapter 4
00:18:06.585 : Chapter 5
00:23:26.571 : Chapter 6
00:28:39.843 : Chapter 7
00:33:52.447 : Chapter 8
00:38:26.095 : Chapter 9
00:42:51.860 : Chapter 10
00:46:39.463 : Chapter 11
00:52:38.196 : Chapter 12
00:57:06.089 : Chapter 13
01:01:58.089 : Chapter 14
01:07:18.534 : Chapter 15
01:12:26.342 : Chapter 16
01:17:35.108 : Chapter 17
01:21:18.456 : Chapter 18
01:25:25.995 : Chapter 19
01:31:23.644 : Chapter 20
01:36:26.363 : Chapter 21
01:41:24.578 : Chapter 22
01:47:35.699 : Chapter 23
01:53:59.165 : Chapter 24
02:00:44.946 : Chapter 25

pb.wtf



Скачать Железный рыцарь через торрент http://i41.fastpic.ru/big/2012/0816/8d/1a430be4a8a2ca8108bfae49fc9b908d.jpg Скачать фильм Железный рыцарь через торрент бесплантно в хорошем качестве В ролях: Джеймс Пьюрфой, Кейт Мара, Пол Джаматти, Брайан Кокс, Джейсон Флеминг, Чарльз Дэнс, Дерек Джекоби, Маккензи Крук, Владимир Кулич, ... 10 10 2
Info! Золотая раздача, скачанное не засчитывается.
Торрент: Зарегистрирован [2012-08-16 10:18] · скачан: 25 раз
Статус: √ проверено
Размер: 23.07 GB
Как cкачать? Как скачать Железный рыцарь через торрент | qTorrent

% Раздел Тема Автор DL S | L
Сборники на DVD и Сиквелы [DVDrip, WEB-DLRip, HDrip, BDRip] [ 5.82 GB ] Железный рыцарь: Дилогия / Ironclad: Diligy [2011-2014 BDRip-AVC] Dub potroks Скачать
1 | 0
Фильмы 2014 [DVDrip, WEB-DLRip, HDrip] [ 2.91 GB ] Железный рыцарь 2 / Ironclad: Battle for Blood [2014 BDRip-AVC] DUB potroks Скачать
1 | 0
Фильмы [HD 720p, 1080p] (Хороший звук DUB, MVO) [ 6.87 GB ] Железный рыцарь / Ironclad [2011 BDRip ] Shmel Скачать
1 | 0
Фильмы 2011 [ 2.05 GB ] Железный рыцарь / Ironclad [2011 HDRip] DUB L_E_X Скачать
1 | 0
Фильмы 2011 [ 1.37 GB ] Железный рыцарь / Ironclad [2011 HDRip] DUB L_E_X Скачать
1 | 0
Фильмы 2011 [ 701 MB ] Железный рыцарь / Ironclad [2011 HDRip лицензия] 700 mb SD Скачать
1 | 0
Фильмы [HD 720p, 1080p] (Хороший звук DUB, MVO) [ 23.07 GB ] Железный рыцарь / Ironclad [2011 Германия BluRay 1080p] DUB + Original Eng ACFIORENTINA Скачать
1 | 0

28-11-2019 20:33  

Отключить всю рекламу на сайте

    Дорогой пользователь! Огромная просьба, поблагодарите релизера, оцените раздачу и оставьте свои комментарий, если Вы скачали Железный рыцарь через торрент бесплатно! Внесите свою лепту в развитие PiratBit!
    Комментировать посты могут только пользователи прошедшие не сложную регистрацию
    Показать сообщения:    

    Железный рыцарь через торрент
    Скачать бесплатно Железный рыцарь
    Железный рыцарь скачать торрент
    Железный рыцарь смотреть онлайн
    Cкачать фильм Железный рыцарь бесплатно
    Железный рыцарь скачать торрент в хорошем качестве
    Железный рыцарь смотреть онлайн бесплатно в хорошем качестве


    Вы не можете начинать темы
    Вы не можете отвечать на сообщения
    Вы не можете редактировать свои сообщения
    Вы не можете удалять свои сообщения
    Вы не можете голосовать в опросах
    Вы не можете прикреплять файлы к сообщениям
    Вы можете скачивать файлы