1 сезон

3 сезон

iTunes

1

Line

MVO

iTunes

13

1 сезон

RePack

30

Deluxe

pack

Лицензия

ВАЖНО

ИГРА 18+

pack

RePack

MK11

RePack

jed

RePack

fifa19

RePack

RDR2

RePack

NEED FOR SPEED™ PAYBACK

4 сезон

9 сезон

Бесстыжие 9 сезон

Все сериалы

все сериалы на PB.wtf

RePack

FAR CRY 5

Anonymous, доброй ночи, мы катастрофически не успеваем собрать деньги на оплату серверов, помогите нам пожалуйста 5,10,15р., для нас важна любая помощь . В качестве благодарности мы отключим Вам всю рекламу на сайте (укажите свой ник в строку Ваше имя)!

×
  
Magnet ссылка

Железное небо / Iron Sky (Тимо Вуоренсола / Timo Vuorensola) [2012, фантастика, боевик, комедия, DVD9] R5 pb.wtf

Железное небо через торрент pb.wtf

Размер: 4.67 GB | Добавлен: 8 лет 11 мес. назад | Торрент скачан:197 раз
Скачать  

17-08-2012 14:29 Железное небо Скачать торрент  


Железное небо / Iron Sky
«Вторжение с тёмной стороны Луны!»
Страна: Финляндия, Германия, Австралия
Студия: 27 Films Production, Blind Spot Pictures Oy, New Holland Pictures, Tuotantoyhtiö Energia, Yleisradio (YLE)
Жанр: фантастика, боевик, комедия
Год выпуска: 2012
Мировая премьера: 11 февраля 2012
Российская премьера: 5 июля 2012
Дата выхода DVD: 14 августа 2012
Продолжительность: 01:28:56
Перевод: Профессиональный (дублированный) [Лицензия]
Cубтитры: нет
Оригинальная аудиодорожка: английский
Режиссер: Тимо Вуоренсола / Timo Vuorensola
В ролях: Юлия Дитце, Удо Кир, Пета Сержант, Ким Джексон, Гёц Отто, Стефани Пол, Кристофер Кирби, Моника Госсманн, Джим Нобелок, Юки Ивамото
Описание: 70 лет назад недобитые нацисты улетели на Луну. Теперь, когда их гигантский флот возмездия почти достроен, они решили устроить Земле новый блицкриг. Тем временем президент США готова на всё, чтобы пойти на второй срок — даже развязать в космосе войну за природные ресурсы; а тщеславный офицер Четвертого Рейха Клаус задумал предать фюрера и получить Влacть над Землёй в свои руки. Боевые цеппелины уже вышли на орбиту, земные города под прицелом. Похоже, мира хотят только двое: наивная учительница с Луны Ренате и бывший астронавт Джеймс Вашингтон.
Бонусы: Что такое Краудфандинг, Трейлер "В ритме сердца", Клип "В ритме сердца"

Качество: DVD9 R5
Формат: DVD-Video
Видео кодек: MPEG2
Аудио кодек: AC3
Видео: PAL 16:9 (720x576(0.431)) MPEG Video, 25,000 кадр/сек, 4473 Кбит/сек
Аудио #1: Russian (Dolby AC3, 6 ch) 448 Кбит/сек, 48,0 КГц
Аудио #2: Russian (Dolby AC3, 2 ch) 192 Кбит/сек, 48,0 КГц
Аудио #3: English (Dolby AC3, 6 ch) 448 Кбит/сек, 48,0 КГц



Title:
Size: 4.67 Gb ( 4 901 378,00 KBytes ) - DVD-9
Enabled regions: 1, 2, 3, 4, 5, 6, 7, 8

VTS_01 :
Play Length: 00:00:25+{00:00:25}+{00:00:25}
Video: PAL 4:3 (720x576) VBR
Audio:
Russian (Dolby AC3, 6 ch)
English (Dolby AC3, 6 ch)
English (Dolby AC3, 6 ch)

VTS_02 :
Play Length: 00:00:30+{00:00:30}+{00:00:30}
Video: PAL 16:9 (720x576) VBR, Auto Pan&Scan, Auto Letterboxed
Audio:
Russian (Dolby AC3, 2 ch)
Russian (Dolby AC3, 2 ch)
Russian (Dolby AC3, 2 ch)

VTS_03 :
Play Length: 01:28:56
Video: PAL 16:9 (720x576) VBR, Auto Pan&Scan, Auto Letterboxed
Audio:
Russian (Dolby AC3, 6 ch)
Russian (Dolby AC3, 2 ch)
English (Dolby AC3, 6 ch)

VTS_04 :
Play Length: 00:03:44+{00:03:44}+{00:03:44}
Video: PAL 16:9 (720x576) VBR, Auto Pan&Scan, Auto Letterboxed
Audio:
Russian (Dolby AC3, 2 ch)
Russian (Dolby AC3, 2 ch)
Russian (Dolby AC3, 2 ch)

VTS_05 :
Play Length: 00:01:47+{00:01:47}+{00:01:47}
Video: PAL 16:9 (720x576) VBR, Auto Pan&Scan, Auto Letterboxed
Audio:
Russian (Dolby AC3, 2 ch)
Russian (Dolby AC3, 2 ch)
Russian (Dolby AC3, 2 ch)

VTS_06 :
Play Length: 00:03:22+{00:03:22}+{00:03:22}
Video: PAL 16:9 (720x576) VBR, Auto Pan&Scan, Auto Letterboxed
Audio:
Russian (Dolby AC3, 2 ch)
Russian (Dolby AC3, 2 ch)
Russian (Dolby AC3, 2 ch)
Общее
Полное имя : J:\Новинки 2012\Jeleznoe.Nebo.2012.DVD9\VIDEO_TS\VTS_03_1.VOB
Формат : MPEG-PS
Размер файла : 1024 Мбайт
Продолжительность : 25 м.
Режим общего битрейта : Переменный
Общий поток : 5674 Кбит/сек

Видео
Идентификатор : 224 (0xE0)
Формат : MPEG Video
Версия формата : Version 2
Профиль формата : Main@Main
Параметр BVOP формата : Да
Параметр матрицы формата : Выборочная
Параметр GOP формата : M=3, N=12
Продолжительность : 25 м.
Вид битрейта : Переменный
Битрейт : 4473 Кбит/сек
Максимальный битрейт : 7500 Кбит/сек
Ширина : 720 пикселей
Высота : 576 пикселей
Соотношение сторон : 16:9
Частота кадров : 25,000 кадров/сек
Стандарт вещания : PAL
Цветовое пространство : YUV
Субдискретизация насыщенности : 4:2:0
Битовая глубина : 8 бит
Тип развёртки : Прогрессивная
Метод сжатия : С потерями
Бит/(Пиксели*Кадры) : 0.431
Размер потока : 807 Мбайт (79%)
Основные цвета : BT.470-2 System B, BT.470-2 System G
Характеристики трансфера : BT.470-2 System B, BT.470-2 System G
Коэффициенты матрицы : SMPTE 170M

Аудио #1
Идентификатор : 189 (0xBD)-128 (0x80)
Формат : AC-3
Формат/Информация : Audio Coding 3
Расширение режима : CM (complete main)
Параметр Endianness формата : Big
Режим смешивания : DVD-Video
Продолжительность : 25 м.
Вид битрейта : Постоянный
Битрейт : 448 Кбит/сек
Каналы : 6 каналов
Расположение каналов : Front: L C R, Side: L R, LFE
Частота : 48,0 КГц
Битовая глубина : 16 бит
Метод сжатия : С потерями
Размер потока : 80,8 Мбайт (8%)

Аудио #2
Идентификатор : 189 (0xBD)-129 (0x81)
Формат : AC-3
Формат/Информация : Audio Coding 3
Расширение режима : CM (complete main)
Параметр Endianness формата : Big
Режим смешивания : DVD-Video
Продолжительность : 25 м.
Вид битрейта : Постоянный
Битрейт : 192 Кбит/сек
Каналы : 2 канала
Расположение каналов : Front: L R
Частота : 48,0 КГц
Битовая глубина : 16 бит
Метод сжатия : С потерями
Размер потока : 34,6 Мбайт (3%)

Аудио #3
Идентификатор : 189 (0xBD)-130 (0x82)
Формат : AC-3
Формат/Информация : Audio Coding 3
Расширение режима : CM (complete main)
Параметр Endianness формата : Big
Режим смешивания : DVD-Video
Продолжительность : 25 м.
Вид битрейта : Постоянный
Битрейт : 448 Кбит/сек
Каналы : 6 каналов
Расположение каналов : Front: L C R, Side: L R, LFE
Частота : 48,0 КГц
Битовая глубина : 16 бит
Метод сжатия : С потерями
Размер потока : 80,8 Мбайт (8%)










pb.wtf



Скачать Железное небо через торрент http://i43.fastpic.ru/big/2012/0817/ee/97125c231df3435318851995ac9c83ee.jpg Скачать фильм Железное небо через торрент бесплантно в хорошем качестве Описание: 70 лет назад недобитые нацисты улетели на Луну. Теперь, когда их гигантский флот возмездия почти достроен, они решили устроить ... 10 10 3
Info! Золотая раздача, скачанное не засчитывается.
Торрент: Зарегистрирован [2012-08-17 14:29] · скачан: 197 раз
Статус: √ проверено
Размер: 4.67 GB
Как cкачать? Как скачать Железное небо через торрент | UTorrent

28-11-2019 20:33  

Отключить всю рекламу на сайте

17-08-2012 17:49 Железное небо Скачать торрент  

Спасибо, посмотрим.pb.wtf



    Дорогой пользователь! Огромная просьба, поблагодарите релизера, оцените раздачу и оставьте свои комментарий, если Вы скачали Железное небо через торрент бесплатно! Внесите свою лепту в развитие PiratBit!
    Комментировать посты могут только пользователи прошедшие не сложную регистрацию
    Показать сообщения:    

    Железное небо через торрент
    Скачать бесплатно Железное небо
    Железное небо скачать торрент
    Железное небо смотреть онлайн
    Cкачать фильм Железное небо бесплатно
    Железное небо скачать торрент в хорошем качестве
    Железное небо смотреть онлайн бесплатно в хорошем качестве


    Вы не можете начинать темы
    Вы не можете отвечать на сообщения
    Вы не можете редактировать свои сообщения
    Вы не можете удалять свои сообщения
    Вы не можете голосовать в опросах
    Вы не можете прикреплять файлы к сообщениям
    Вы можете скачивать файлы