Ссылка на приватное зеркало нашего сайта всего за 1$. Внимание количество ограничено!!!

2 сезон

iTunes

1 сезон

1

iTunes

iTunes

iTunes

1 сезон

RePack

30

ИГРА 18+

pack

ВАЖНО

!!Акция!!

Alien_RageХит недели

RePack

MK11
pack

Забери бонус

RePack

jed

!!Акция!!

Alien_Rage

RePack

fifa19

RePack

Assassins Creed: Odyssey

RePack

NEED FOR SPEED™ PAYBACK

4 сезон

9 сезон

Бесстыжие 9 сезон

Все сериалы

все сериалы на PB.wtf

RePack

FAR CRY 5
  

Ялта-45 / Сезон: 1 / Серии 1-4 (4) (Тигран Кеосаян) [2012, боевик, военный, DVD9] Оригинал pb.wtf

Ялта-45 через торрент pb.wtf

Размер: 7.53 GB | Добавлен: 8 лет 2 мес. назад | Торрент скачан:109 раз
Скачать  

17-08-2012 17:56 Ялта-45 Скачать торрент  


Ялта-45
Год выпуска: 2012
Страна: Россия / Централ Партнершип
Жанр: боевик, военный
Продолжительность: 180 мин
Перевод: Оригинал
Субтитры: Нет
Режиссер: Тигран Кеосаян
Продюсер: Рубен Дишдишян
В ролях: Александр Голубев (капитан Алексей Турок), Евгений Миллер (Жора Маркаров), Максим Матвеев (Джон Уилби), Михаил Евланов (Исмаил), Алёна Хмельницкая (Нина), Александр Феклистов (Федотов), Александр Коршунов (майор Мавлянов), Борис Каморзин (Власик), Сергей Деревянко (майор Ковалев), Борис Талах, Владимир Капустин (Леонид), Алексей Девотченко (доктор Шебеко)
Релиз на DVD: 23 февраля 2012, «Новый Диск»
Описание: Январь 1945 года. В Ялте полным ходом идет подготовка к встрече лидеров антигитлеровской коалиции: Сталина, Рузвельта и Черчилля. Спецслужбы союзников работают сообща, чтобы обеспечить первым лицам полную безопасность. Тревожатся они не зря: в городе действительно затаилась группа диверсантов, планирующая теракт. На их след выходят контрразведчик Турок, местный следователь Жора Макаров и майор американской разведки Джон Уилби.

Семпл
Релиз:
Качество: DVD9
Формат: DVD-Video
Видео кодек: MPEG2
Аудио кодек: AC3
Видео: PAL 16:9 (720x576) VBR ~ 5433 Кбит/сек, 0.492 Бит/(Пиксели*Кадры)
Аудио: 48 kHz, AC3 Dolby Digital, 2/0 (L,R) ch, ~224 kbps
Общее
Полное имя : F:\Jalta.45.2012.DVD-9\VIDEO_TS\VTS_06_1.VOB
Формат : MPEG-PS
Размер файла : 1024 Мбайт
Продолжительность : 26 м.
Режим общего битрейта : Переменный
Общий поток : 5433 Кбит/сек
Видео
Идентификатор : 224 (0xE0)
Формат : MPEG Video
Версия формата : Version 2
Профиль формата : Main@Main
Параметр BVOP формата : Да
Параметр матрицы формата : По умолчанию
Параметр GOP формата : M=3, N=12
Продолжительность : 26 м.
Вид битрейта : Переменный
Битрейт : 5101 Кбит/сек
Максимальный битрейт : 7500 Кбит/сек
Ширина : 720 пикселей
Высота : 576 пикселей
Соотношение сторон : 16:9
Частота кадров : 25,000 кадров/сек
Стандарт вещания : PAL
Цветовое пространство : YUV
Субдискретизация насыщенности : 4:2:0
Битовая глубина : 8 бит
Тип развёртки : Чересстрочная
Порядок развёртки : Верхнее поле первое
Метод сжатия : С потерями
Бит/(Пиксели*Кадры) : 0.492
Размер потока : 961 Мбайт (94%)
Аудио
Идентификатор : 189 (0xBD)-128 (0x80)
Формат : AC-3
Формат/Информация : Audio Coding 3
Расширение режима : CM (complete main)
Режим смешивания : DVD-Video
Продолжительность : 26 м.
Вид битрейта : Постоянный
Битрейт : 224 Кбит/сек
Каналы : 2 канала
Расположение каналов : Front: L R
Частота : 48,0 КГц
Битовая глубина : 16 бит
Метод сжатия : С потерями
Размер потока : 42,2 Мбайт (4%)
Меню
Title: Jalta.45.2012.DVD-9
Size: 7.53 Gb ( 7 893 134,00 KBytes ) - DVD-9
Enabled regions: 1, 2, 3, 4, 5, 6, 7, 8
VTS_01 :
Play Length: 00:00:15
Video: PAL 4:3 (720x576) VBR
Audio:
Not specified (Dolby AC3, 2 ch)
VTS_02 :
Play Length: 00:00:08
Video: PAL 16:9 (720x576) VBR, Auto Letterboxed
Audio:
Not specified (Dolby AC3, 2 ch)
VTS_03 :
Play Length: 00:01:19
Video: PAL 16:9 (720x576) VBR, Auto Letterboxed
Audio:
Not specified (Dolby AC3, 2 ch)
VTS_04 :
Play Length: 00:02:00
Video: PAL 16:9 (720x576) VBR, Auto Letterboxed
Audio:
Not specified (Dolby AC3, 2 ch)
VTS_05 :
Play Length: 00:02:33
Video: PAL 16:9 (720x576) VBR, Auto Letterboxed
Audio:
Not specified (Dolby AC3, 2 ch)
VTS_06 :
Play Length: 00:46:55
Video: PAL 16:9 (720x576) VBR, Auto Letterboxed
Audio:
Russian (Dolby AC3, 2 ch)
VTS_07 :
Play Length: 00:49:33
Video: PAL 16:9 (720x576) VBR, Auto Letterboxed
Audio:
Persian, AC3, 2/0 (L,R) ch, 224 kbps, Delay 0 mSec
VTS_08 :
Play Length: 00:48:36
Video: PAL 16:9 (720x576) VBR, Auto Letterboxed
Audio:
Russian (Dolby AC3, 2 ch)
VTS_09 :
Play Length: 00:46:38
Video: PAL 16:9 (720x576) VBR, Auto Letterboxed
Audio:
Russian (Dolby AC3, 2 ch)
* Menus Information *
VIDEO_TS Menu
Video:
PAL 16:9 (720x576) VBR
Auto Pan&Scan
English Language Unit :
Title Menu
VTS_01 Menu
Video:
PAL 16:9 (720x576) VBR
Auto Letterboxed
Audio:
Not specified (Dolby AC3, 2 ch)
English Language Unit :
Root Menu
Chapter (PTT) Menu
VTS_02 Menu
Video:
PAL 4:3 (720x576) VBR
Auto Pan&Scan, Auto Letterboxed
English Language Unit :
Root Menu
Chapter (PTT) Menu
VTS_03 Menu
Video:
PAL 4:3 (720x576) VBR
Auto Pan&Scan, Auto Letterboxed
English Language Unit :
Root Menu
Chapter (PTT) Menu
VTS_04 Menu
Video:
PAL 4:3 (720x576) VBR
Auto Pan&Scan, Auto Letterboxed
English Language Unit :
Root Menu
Chapter (PTT) Menu
VTS_05 Menu
Video:
PAL 4:3 (720x576) VBR
Auto Pan&Scan, Auto Letterboxed
English Language Unit :
Root Menu
Chapter (PTT) Menu
VTS_06 Menu
Video:
PAL 4:3 (720x576) VBR
Auto Pan&Scan, Auto Letterboxed
English Language Unit :
Root Menu
Chapter (PTT) Menu
VTS_07 Menu
Video:
PAL 4:3 (720x576) VBR
Auto Pan&Scan, Auto Letterboxed
English Language Unit :
Root Menu
Chapter (PTT) Menu
VTS_08 Menu
Video:
PAL 4:3 (720x576) VBR
Auto Pan&Scan, Auto Letterboxed
English Language Unit :
Root Menu
Chapter (PTT) Menu
VTS_09 Menu
Video:
PAL 4:3 (720x576) VBR
Auto Pan&Scan, Auto Letterboxed
English Language Unit :
Root Menu
Chapter (PTT) Menu

pb.wtf



Скачать Ялта-45 через торрент http://i30.fastpic.ru/big/2012/0229/2d/779b75c404037ca2bc0f0b8c889c422d.jpg Скачать фильм Ялта-45 через торрент бесплантно в хорошем качестве Описание: Январь 1945 года. В Ялте полным ходом идет подготовка к встрече лидеров антигитлеровской коалиции: Сталина, Рузвельта и ... 8 10 1
Info! Золотая раздача, скачанное не засчитывается.
Торрент: Зарегистрирован [2012-08-17 17:56] · скачан: 109 раз
Статус: √ проверено
Размер: 7.53 GB
Как cкачать? Как скачать Ялта-45 через торрент | qTorrent

28-11-2019 20:33  

Отключить всю рекламу на сайте

    Дорогой пользователь! Огромная просьба, поблагодарите релизера, оцените раздачу и оставьте свои комментарий, если Вы скачали Ялта-45 через торрент бесплатно! Внесите свою лепту в развитие PiratBit!
    Комментировать посты могут только пользователи прошедшие не сложную регистрацию
    Показать сообщения:    

    Ялта-45 через торрент
    Скачать бесплатно Ялта-45
    Ялта-45 скачать торрент
    Ялта-45 смотреть онлайн
    Cкачать фильм Ялта-45 бесплатно
    Ялта-45 скачать торрент в хорошем качестве
    Ялта-45 смотреть онлайн бесплатно в хорошем качестве


    Вы не можете начинать темы
    Вы не можете отвечать на сообщения
    Вы не можете редактировать свои сообщения
    Вы не можете удалять свои сообщения
    Вы не можете голосовать в опросах
    Вы не можете прикреплять файлы к сообщениям
    Вы можете скачивать файлы