Ссылка на приватное зеркало нашего сайта всего за 1$. Внимание количество ограничено!!!

2 сезон

iTunes

1 сезон

1

iTunes

iTunes

iTunes

1 сезон

RePack

30

ИГРА 18+

pack

ВАЖНО

!!Акция!!

Alien_RageХит недели

RePack

MK11
pack

Забери бонус

RePack

jed

!!Акция!!

Alien_Rage

RePack

fifa19

RePack

Assassins Creed: Odyssey

RePack

NEED FOR SPEED™ PAYBACK

4 сезон

9 сезон

Бесстыжие 9 сезон

Все сериалы

все сериалы на PB.wtf

RePack

FAR CRY 5
  

Следопыт / Tracker (Йен Шарп) [2010 г., боевик, триллер, драма, приключения, HDRip, Профессиональный (многоголосый) (MVO [НТВ+]] pb.wtf

Следопыт через торрент pb.wtf

Размер: 1.46 GB | Добавлен: 8 лет 2 мес. назад | Торрент скачан:231 раз
Скачать  

17-08-2012 20:21 Следопыт Скачать торрент  

Следопыт / Tracker

Год выпуска: 2010
Страна: Великобритания, Новая Зеландия
Жанр: боевик, триллер, драма, приключения
Продолжительность: 01:42:13
Перевод: Профессиональный многоголосый [НТВ+]

Режиссер: Йен Шарп
Продюссер: Дэвид Барнс, Тревор Нэйсом, Сью Кук

В ролях: Рэй Уинстоун, Темуэра Моррисон, Гарет Ривз, Марк Митчинсон, Энди Андерсон, Мик Роуз, Джоди Хиллок, Тим МакЛахлан, Стив Рейнсфилд

Описание: Новая Зеландия, 1903 год. Бывший партизан закончившейся англо-бурской войны, примыкает к отряду, посланному поймать маори (представитель коренного населения Новой Зеландии), обвиняемого в убийстве английского солдата. Обладая редкими навыками читать следы, он первым настигает разыскиваемого. Дальнейшее конвоирование, общение и даже конфликты приводят к росту их взаимного уважения. Но по пятам идет отряд англичан, целью которых является показательное повешение обвиняемого.

Качество: HDRip
Формат: AVI
Видео кодек: XviD
Аудио кодек: AC3
Видео: 720x304 (2.37:1), 23.976 fps, XviD build 50 ~1837 kbps avg, 0.35 bit/pixel
Аудио#1: 48 kHz, AC3 Dolby Digital, 2/0 (L,R) ch, ~192 kbps

Общее
Полное имя : E:\Cinema\Sledopyt.2010.P.HDRip.avi
Формат : AVI
Формат/Информация : Audio Video Interleave
Размер файла : 1,46 Гбайт
Продолжительность : 1 ч. 42 м.
Общий поток : 2039 Кбит/сек
Программа кодирования : VirtualDubMod 1.5.10.2 (build 2540/release)
Библиотека кодирования : VirtualDubMod build 2540/release

Видео
Идентификатор : 0
Формат : MPEG-4 Visual
Профиль формата : Advanced Simple@L5
Параметр BVOP формата : 2
Параметр QPel формата : Нет
Параметр GMC формата : Без точки перехода
Параметр матрицы формата : Выборочная
Идентификатор кодека : XVID
Идентификатор кодека/Подсказка : XviD
Продолжительность : 1 ч. 42 м.
Битрейт : 1838 Кбит/сек
Ширина : 720 пикселей
Высота : 304 пикселя
Соотношение сторон : 2,35:1
Частота кадров : 23,976 кадра/сек
Цветовое пространство : YUV
Субдискретизация насыщенности : 4:2:0
Битовая глубина : 8 бит
Тип развёртки : Прогрессивная
Метод сжатия : С потерями
Бит/(Пиксели*Кадры) : 0.350
Размер потока : 1,31 Гбайт (90%)
Библиотека кодирования : XviD 1.2.1 (UTC 2008-12-04)

Аудио
Идентификатор : 1
Формат : AC-3
Формат/Информация : Audio Coding 3
Расширение режима : CM (complete main)
Параметр Endianness формата : Big
Идентификатор кодека : 2000
Продолжительность : 1 ч. 42 м.
Вид битрейта : Постоянный
Битрейт : 192 Кбит/сек
Каналы : 2 канала
Расположение каналов : Front: L R
Частота : 48,0 КГц
Битовая глубина : 16 бит
Метод сжатия : С потерями
Размер потока : 140 Мбайт (9%)
Выравнивание : Разделение по промежуткам
Продолжительность промежутка : 42 мс. (1,00 видеокадр)
Время предзагрузки промежутка : 500 мс.

pb.wtf



Скачать Следопыт через торрент http://i23.fastpic.ru/big/2011/0626/bf/937408a7cf6b205ea533c5fd299352bf.jpg Скачать фильм Следопыт через торрент бесплантно в хорошем качестве Описание: Новая Зеландия, 1903 год. Бывший партизан закончившейся англо-бурской войны, примыкает к отряду, посланному поймать маори ... 7 10 1
Info! Золотая раздача, скачанное не засчитывается.
Торрент: Зарегистрирован [2012-08-17 20:21] · скачан: 231 раз
Статус: √ проверено
Размер: 1.46 GB
Как cкачать? Как скачать Следопыт через торрент | qTorrent



Последний раз редактировалось: Ворон (2012-08-17 20:25), всего редактировалось 1 раз

28-11-2019 20:33  

Отключить всю рекламу на сайте

17-08-2012 20:30 Следопыт Скачать торрент  

Тему создал через визард,почему не отображается не пойму


Вот код оформления?может модераторы исправят данную ошибку.

Код:

[img=right]http://i23.fastpic.ru/big/2011/0626/bf/937408a7cf6b205ea533c5fd299352bf.jpg[/img]

[size=24][font="Georgia"]Следопыт / Tracker[/font][/size]

[b][font="Georgia"]Год выпуска[/font][/b]: 2010
[b][font="Georgia"]Страна[/font][/b]: Великобритания, Новая Зеландия
[b][font="Georgia"]Жанр[/font][/b]: боевик, триллер, драма, приключения
[b][font="Georgia"]Продолжительность[/font][/b]: 01:42:13
[b][font="Georgia"]Перевод[/font][/b]: Профессиональный многоголосый [НТВ+]

[b][font="Georgia"]Режиссер[/font][/b]: Йен Шарп
[b][font="Georgia"]Продюссер[/font][/b]: Дэвид Барнс, Тревор Нэйсом, Сью Кук

[b][font="Georgia"]В ролях[/font][/b]: Рэй Уинстоун, Темуэра Моррисон, Гарет Ривз, Марк Митчинсон, Энди Андерсон, Мик Роуз, Джоди Хиллок, Тим МакЛахлан, Стив Рейнсфилд

[b][font="Georgia"]Описание[/font][/b]: Новая Зеландия, 1903 год. Бывший партизан закончившейся англо-бурской войны, примыкает к отряду, посланному поймать маори (представитель коренного населения Новой Зеландии), обвиняемого в убийстве английского солдата. Обладая редкими навыками читать следы, он первым настигает разыскиваемого. Дальнейшее конвоирование, общение и даже конфликты приводят к росту их взаимного уважения. Но по пятам идет отряд англичан, целью которых является показательное повешение обвиняемого.

[b][font="Georgia"]Качество[/font][/b]: HDRip
[b][font="Georgia"]Формат[/font][/b]: AVI
[b][font="Georgia"]Видео кодек[/font][/b]: XviD
[b][font="Georgia"]Аудио кодек[/font][/b]: AC3
[b][font="Georgia"]Видео[/font][/b]: 720x304 (2.37:1), 23.976 fps, XviD build 50 ~1837 kbps avg, 0.35 bit/pixel
[b][font="Georgia"]Аудио#1[/font][/b]: 48 kHz, AC3 Dolby Digital, 2/0 (L,R) ch, ~192 kbps
[URL=https://piratbit.top/goo.php?url=http://multi-up.com/747670][img]http://pb.wtf/images/sample.gif[/img][/url]

[spoiler="Скриншоты"][url=http://i1.imageban.ru/out/2012/08/17/acaa61363a5d8934bb1de23ebef3c7ce.png][img]http://i3.imageban.ru/out/2012/08/17/6888a1900d4b40dad6f14a37d0a8daab.jpg[/img][/url]  [url=http://i3.imageban.ru/out/2012/08/17/af5d172f4639e4dbfffd66454b46a276.png][img]http://i2.imageban.ru/out/2012/08/17/f4ab7d34a6cd292e0bdeeb5e30fb91b8.jpg[/img][/url]  [url=http://i3.imageban.ru/out/2012/08/17/db4edee625ee414cea9de4b9d75422ec.png][img]http://i4.imageban.ru/out/2012/08/17/93cab014c7cea84d2704588d9dd1b3fc.jpg[/img][/url]  [url=http://i1.imageban.ru/out/2012/08/17/877532503c2bd32a280fc1f309de7d3d.png][img]http://i2.imageban.ru/out/2012/08/17/31c0bb18fde3a80e1c53f4c2517edb6c.jpg[/img][/url] [url=http://i1.imageban.ru/out/2012/08/17/9785a48d5dee10d6f8cdb708a1ac5f08.png][img]http://i3.imageban.ru/out/2012/08/17/39a5ba187fa6432d68c34380f344628d.jpg[/img][/url]  [url=http://i3.imageban.ru/out/2012/08/17/dc97c41fa8574ee3ccbcf3ffaeb69da2.png][img]http://i4.imageban.ru/out/2012/08/17/534f3d5e71272efb22926ce6a06c2dab.jpg[/img][/url]
[/spoiler][hr][spoiler="MediaInfo"]Общее
Полное имя : E:\Cinema\Sledopyt.2010.P.HDRip.avi
Формат : AVI
Формат/Информация : Audio Video Interleave
Размер файла : 1,46 Гбайт
Продолжительность : 1 ч. 42 м.
Общий поток : 2039 Кбит/сек
Программа кодирования : VirtualDubMod 1.5.10.2 (build 2540/release)
Библиотека кодирования : VirtualDubMod build 2540/release

Видео
Идентификатор : 0
Формат : MPEG-4 Visual
Профиль формата : Advanced Simple@L5
Параметр BVOP формата : 2
Параметр QPel формата : Нет
Параметр GMC формата : Без точки перехода
Параметр матрицы формата : Выборочная
Идентификатор кодека : XVID
Идентификатор кодека/Подсказка : XviD
Продолжительность : 1 ч. 42 м.
Битрейт : 1838 Кбит/сек
Ширина : 720 пикселей
Высота : 304 пикселя
Соотношение сторон : 2,35:1
Частота кадров : 23,976 кадра/сек
Цветовое пространство : YUV
Субдискретизация насыщенности : 4:2:0
Битовая глубина : 8 бит
Тип развёртки : Прогрессивная
Метод сжатия : С потерями
Бит/(Пиксели*Кадры) : 0.350
Размер потока : 1,31 Гбайт (90%)
Библиотека кодирования : XviD 1.2.1 (UTC 2008-12-04)

Аудио
Идентификатор : 1
Формат : AC-3
Формат/Информация : Audio Coding 3
Расширение режима : CM (complete main)
Параметр Endianness формата : Big
Идентификатор кодека : 2000
Продолжительность : 1 ч. 42 м.
Вид битрейта : Постоянный
Битрейт : 192 Кбит/сек
Каналы : 2 канала
Расположение каналов : Front: L R
Частота : 48,0 КГц
Битовая глубина : 16 бит
Метод сжатия : С потерями
Размер потока : 140 Мбайт (9%)
Выравнивание : Разделение по промежуткам
Продолжительность промежутка : 42 мс. (1,00 видеокадр)
Время предзагрузки промежутка : 500 мс.[/spoiler][hr]

pb.wtf





Последний раз редактировалось: Ворон (2012-08-18 05:23), всего редактировалось 1 раз

17-08-2012 20:49 Следопыт Скачать торрент  

А где раздача? Нужно чуточку отредактировать. )))pb.wtf



18-08-2012 03:52 Следопыт Скачать торрент  

За раздачу спасибо. Фильм скорее всего подойдет в черно-белом варианте (под старину 50-е 60-е года), поскольку очень наивный и чуть-чуть не стыкуется по сюжету, особенно смазана концовка.pb.wtf



    Дорогой пользователь! Огромная просьба, поблагодарите релизера, оцените раздачу и оставьте свои комментарий, если Вы скачали Следопыт через торрент бесплатно! Внесите свою лепту в развитие PiratBit!
    Комментировать посты могут только пользователи прошедшие не сложную регистрацию
    Показать сообщения:    

    Следопыт через торрент
    Скачать бесплатно Следопыт
    Следопыт скачать торрент
    Следопыт смотреть онлайн
    Cкачать фильм Следопыт бесплатно
    Следопыт скачать торрент в хорошем качестве
    Следопыт смотреть онлайн бесплатно в хорошем качестве


    Вы не можете начинать темы
    Вы не можете отвечать на сообщения
    Вы не можете редактировать свои сообщения
    Вы не можете удалять свои сообщения
    Вы не можете голосовать в опросах
    Вы не можете прикреплять файлы к сообщениям
    Вы можете скачивать файлы