1 сезон

3 сезон

iTunes

1

iTunes

MVO

iTunes

13

1 сезон

RePack

30

Deluxe

pack

Лицензия

ВАЖНО

ИГРА 18+

pack

RePack

MK11

RePack

jed

RePack

fifa19

RePack

RDR2

RePack

NEED FOR SPEED™ PAYBACK

4 сезон

9 сезон

Бесстыжие 9 сезон

Все сериалы

все сериалы на PB.wtf

RePack

FAR CRY 5

Anonymous, доброй ночи, мы катастрофически не успеваем собрать деньги на оплату серверов, помогите нам пожалуйста 5,10,15р., для нас важна любая помощь . В качестве благодарности мы отключим Вам всю рекламу на сайте (укажите свой ник в строку Ваше имя)!

×
  
Magnet ссылка

Ищу друга на конец света / Seeking a Friend for the End of the World (Лорен Скафария / Loren Skafaria) [2012, фантастика, драма, мелодрама, комедия, DVD5] R5 pb.wtf

Ищу друга на конец света через торрент pb.wtf

Размер: 4.36 GB | Добавлен: 8 лет 11 мес. назад | Торрент скачан:353 раза
Скачать  

17-08-2012 21:03 Ищу друга на конец света Скачать торрент  


Ищу друга на конец света / Seeking a Friend for the End of the World
«Любовь подкралась незаметно...»
Страна: США, Сингапур, Малайзия, Индонезия
Студия: Anonymous Content, Indian Paintbrush, Mandate Pictures
Жанр: фантастика, драма, мелодрама, комедия
Год выпуска: 2012
Мировая премьера: 18 июня 2012
Российская премьера: 19 июля 2012
Дата выхода DVD: 21 августа 2012
Продолжительность: 01:36:13
Перевод: Профессиональный (дублированный) [Лицензия]
Cубтитры: нет
Режиссер: Лорен Скафария / Loren Skafaria
В ролях: Стив Карелл, Кира Найтли, Гиллиан Джейкобс, Адам Броди, Мелани Лински, Конни Бриттон, Пэттон Освальт, ТиДжей Миллер, Уильям Л. Питерсен, Роб Кордри...
Описание: К Земле приближается огромный астероид. В такой момент большинство мужчин пустилось бы во все тяжкие. Но только не Додж. Он отправляется на поиски школьной подружки в компании сексуальной соседки Пенни.
Бонусы: нет

Качество: DVD5 R5
Формат: DVD-Video
Видео кодек: MPEG2
Аудио кодек: AC3
Видео: PAL 16:9 (720x576(0.563)) MPEG Video, 25,000 кадр/сек, 5835 Кбит/сек
Аудио: Russian (Dolby AC3, 6 ch) 448 Кбит/сек, 48,0 КГц



Title: Ischu.druga.na.konets.sveta.2012.DVD5
Size: 4.36 Gb ( 4 570 980,00 KBytes ) - DVD-5
Enabled regions: 1, 2, 3, 4, 5, 6, 7, 8

VTS_01 :
Play Length: 00:00:05
Video: PAL 4:3 (720x576) VBR

VTS_02 :
Play Length: 00:00:16
Video: PAL 16:9 (720x576) VBR, Auto Letterboxed
Audio:
Not specified (Dolby AC3, 2 ch)

VTS_03 :
Play Length: 00:00:07
Video: PAL 16:9 (720x576) VBR, Auto Letterboxed
Audio:
Not specified (Dolby AC3, 2 ch)

VTS_04 :
Play Length: 00:00:16
Video: PAL 16:9 (720x576) VBR, Auto Letterboxed
Audio:
Not specified (Dolby AC3, 2 ch)

VTS_05 :
Play Length: 01:36:49
Video: PAL 16:9 (720x576) VBR, Auto Letterboxed
Audio:
Russian (Dolby AC3, 6 ch)

* Menus Information *

VIDEO_TS Menu
Video:
PAL 16:9 (720x576) VBR
Auto Pan&Scan, Auto Letterboxed
English Language Unit :
Title Menu

VTS_01 Menu
Video:
PAL 16:9 (720x576) VBR
Auto Letterboxed
Audio:
Not specified (Dolby AC3, 2 ch)
English Language Unit :
Root Menu

VTS_02 Menu
Video:
PAL 4:3 (720x576) VBR
English Language Unit :
Root Menu

VTS_03 Menu
Video:
PAL 4:3 (720x576) VBR
English Language Unit :
Root Menu

VTS_04 Menu
Video:
PAL 4:3 (720x576) VBR
English Language Unit :
Root Menu

VTS_05 Menu
Video:
PAL 4:3 (720x576) VBR
English Language Unit :
Root Menu
Общее
Полное имя : J:\Новинки 2012\Ischu.druga.na.konets.sveta.2012.DVD5\VIDEO_TS\VTS_05_1.VOB
Формат : MPEG-PS
Размер файла : 1024 Мбайт
Продолжительность : 22 м.
Режим общего битрейта : Переменный
Общий поток : 6411 Кбит/сек

Видео
Идентификатор : 224 (0xE0)
Формат : MPEG Video
Версия формата : Version 2
Профиль формата : Main@Main
Параметр BVOP формата : Да
Параметр матрицы формата : По умолчанию
Параметр GOP формата : M=3, N=12
Продолжительность : 22 м.
Вид битрейта : Переменный
Битрейт : 5835 Кбит/сек
Максимальный битрейт : 9500 Кбит/сек
Ширина : 720 пикселей
Высота : 576 пикселей
Соотношение сторон : 16:9
Частота кадров : 25,000 кадров/сек
Стандарт вещания : PAL
Цветовое пространство : YUV
Субдискретизация насыщенности : 4:2:0
Битовая глубина : 8 бит
Тип развёртки : Прогрессивная
Метод сжатия : С потерями
Бит/(Пиксели*Кадры) : 0.563
Размер потока : 932 Мбайт (91%)

Аудио
Идентификатор : 189 (0xBD)-128 (0x80)
Формат : AC-3
Формат/Информация : Audio Coding 3
Расширение режима : CM (complete main)
Параметр Endianness формата : Big
Режим смешивания : DVD-Video
Продолжительность : 22 м.
Вид битрейта : Постоянный
Битрейт : 448 Кбит/сек
Каналы : 6 каналов
Расположение каналов : Front: L C R, Side: L R, LFE
Частота : 48,0 КГц
Битовая глубина : 16 бит
Метод сжатия : С потерями
Размер потока : 71,5 Мбайт (7%)










pb.wtf



Скачать Ищу друга на конец света через торрент http://i41.fastpic.ru/big/2012/0817/64/155be87fb99481552c95d3dfb96a4264.jpg Скачать фильм Ищу друга на конец света через торрент бесплантно в хорошем качестве Описание: К Земле приближается огромный астероид. В такой момент большинство мужчин пустилось бы во все тяжкие. Но только не Додж. Он ... 10 10 1
Info! Золотая раздача, скачанное не засчитывается.
Торрент: Зарегистрирован [2012-08-17 21:03] · скачан: 353 раз
Статус: √ проверено
Размер: 4.36 GB
Как cкачать? Как скачать Ищу друга на конец света через торрент | UTorrent

28-11-2019 20:33  

Отключить всю рекламу на сайте

02-09-2012 07:16 Ищу друга на конец света Скачать торрент  

Благодарю и забираю в коллекцию...pb.wtf



    Дорогой пользователь! Огромная просьба, поблагодарите релизера, оцените раздачу и оставьте свои комментарий, если Вы скачали Ищу друга на конец света через торрент бесплатно! Внесите свою лепту в развитие PiratBit!
    Комментировать посты могут только пользователи прошедшие не сложную регистрацию
    Показать сообщения:    

    Ищу друга на конец света через торрент
    Скачать бесплатно Ищу друга на конец света
    Ищу друга на конец света скачать торрент
    Ищу друга на конец света смотреть онлайн
    Cкачать фильм Ищу друга на конец света бесплатно
    Ищу друга на конец света скачать торрент в хорошем качестве
    Ищу друга на конец света смотреть онлайн бесплатно в хорошем качестве


    Вы не можете начинать темы
    Вы не можете отвечать на сообщения
    Вы не можете редактировать свои сообщения
    Вы не можете удалять свои сообщения
    Вы не можете голосовать в опросах
    Вы не можете прикреплять файлы к сообщениям
    Вы можете скачивать файлы