1 сезон

1 сезон

iTunes

1

КиноПоиск HD

Кинопоиск HD

iTunes

13

1 сезон

RePack

30

Ultimate

ВАЖНО

ИГРА 18+

pack

RePack

MK11
pack

Легкие деньги

RePack

jed

RePack

fifa19

RePack

RDR2

RePack

NEED FOR SPEED™ PAYBACK

4 сезон

9 сезон

Бесстыжие 9 сезон

Все сериалы

все сериалы на PB.wtf

RePack

FAR CRY 5
  
Magnet ссылка

Дочь моего босса / My Boss's Daughter (Дэвид Цукер) [2003 г., комедия, мелодрама, BDRip, Профессиональный (многоголосый)] pb.wtf

Дочь моего босса через торрент pb.wtf

Размер: 1.45 GB | Добавлен: 8 лет 7 мес. назад | Торрент скачан:65 раз
Скачать  

18-08-2012 10:29 Дочь моего босса Скачать торрент  

Дочь моего босса / My Boss's Daughter

Год выпуска: 2003
Страна: США
Жанр: комедия, мелодрама
Продолжительность: 01:30:05
Перевод: Профессиональный (многоголосый)
Режиссер: Дэвид Цукер
Бюджет: $14 000 000
Премьера в мире: 22 августа 2003
В ролях: Марк Эйсбетт, Эштон Катчер, Джон Абрахамс, Тара Рид, Молли Шеннон, Теренс Стэмп, Энди Рихтер, Тайлер Лэбин, Майкл Мэдсен, Райан Звик ...
Описание:
Строгий начальник просит своего безотказного молодого сотрудника присмотреть за его домом в течение одного вечера. Добросовестный парнишка вынужден согласиться, к тому же, ему очень нравится симпатичная дочка босса.
Но в эту сумасшедшую ночь улетает любимый филин босса, ради присмотра за которым в первую очередь был вызван герой, дом атакуют незваные гости, и, наконец, на огонек заглядывает некий злобный гангстер, превращая этот балаган в настоящий хаос…
Качество: BDRip
Формат: AVI
Видео кодек: XviD
Аудио кодек: AC3
Видео: 720 x 400, 1906 кб/с,23,976 кадра/сек , Bits/(Pixel*Frame): 0.276
Аудио#1: AC3 5.1,48,0 КГц , битрейт: 384 кб/с
Релиз: rip by mimigen
Общее
Полное имя : D:\Торенты\My Boss's Daughter.2003.BDRip-PT.by mimigen.avi
Формат : AVI
Формат/Информация : Audio Video Interleave
Размер файла : 1,45 Гбайт
Продолжительность : 1 ч. 30 м.
Общий поток : 2299 Кбит/сек
Режиссёр : rip by mimigen
Программа кодирования : VirtualDubMod 1.5.10.2 (build 2542/release)
Библиотека кодирования : VirtualDubMod build 2542/release

Видео
Идентификатор : 0
Формат : MPEG-4 Visual
Профиль формата : Advanced Simple@L5
Параметр BVOP формата : 1
Параметр QPel формата : Нет
Параметр GMC формата : Без точки перехода
Параметр матрицы формата : Default (MPEG)
Идентификатор кодека : XVID
Идентификатор кодека/Подсказка : XviD
Продолжительность : 1 ч. 30 м.
Битрейт : 1906 Кбит/сек
Ширина : 720 пикселей
Высота : 400 пикселей
Соотношение сторон : 16:9
Частота кадров : 23,976 кадра/сек
Цветовое пространство : YUV
Субдискретизация насыщенности : 4:2:0
Битовая глубина : 8 бит
Тип развёртки : Прогрессивная
Метод сжатия : С потерями
Бит/(Пиксели*Кадры) : 0.276
Размер потока : 1,20 Гбайт (83%)
Библиотека кодирования : XviD 64

Аудио
Идентификатор : 1
Формат : AC-3
Формат/Информация : Audio Coding 3
Расширение режима : CM (complete main)
Идентификатор кодека : 2000
Продолжительность : 1 ч. 30 м.
Вид битрейта : Постоянный
Битрейт : 384 Кбит/сек
Каналы : 6 каналов
Расположение каналов : Front: L C R, Side: L R, LFE
Частота : 48,0 КГц
Битовая глубина : 16 бит
Метод сжатия : С потерями
Размер потока : 247 Мбайт (17%)
Выравнивание : Разделение по промежуткам
Продолжительность промежутка : 42 мс. (1,00 видеокадр)
Время предзагрузки промежутка : 500 мс.

pb.wtf



Скачать Дочь моего босса через торрент http://i41.fastpic.ru/big/2012/0818/56/42315f17a1eadf366d6abcf5302eea56.png Скачать фильм Дочь моего босса через торрент бесплантно в хорошем качестве Описание: Строгий начальник просит своего безотказного молодого сотрудника присмотреть за его домом в течение одного вечера. Добросовестный ... 10 10 4
Info! Золотая раздача, скачанное не засчитывается.
Торрент: Зарегистрирован [2012-08-18 10:29] · скачан: 65 раз
Статус: √ проверено
Размер: 1.45 GB
Как cкачать? Как скачать Дочь моего босса через торрент | UTorrent

28-11-2019 20:33  

Отключить всю рекламу на сайте

    Дорогой пользователь! Огромная просьба, поблагодарите релизера, оцените раздачу и оставьте свои комментарий, если Вы скачали Дочь моего босса через торрент бесплатно! Внесите свою лепту в развитие PiratBit!
    Комментировать посты могут только пользователи прошедшие не сложную регистрацию
    Показать сообщения:    

    Дочь моего босса через торрент
    Скачать бесплатно Дочь моего босса
    Дочь моего босса скачать торрент
    Дочь моего босса смотреть онлайн
    Cкачать фильм Дочь моего босса бесплатно
    Дочь моего босса скачать торрент в хорошем качестве
    Дочь моего босса смотреть онлайн бесплатно в хорошем качестве


    Вы не можете начинать темы
    Вы не можете отвечать на сообщения
    Вы не можете редактировать свои сообщения
    Вы не можете удалять свои сообщения
    Вы не можете голосовать в опросах
    Вы не можете прикреплять файлы к сообщениям
    Вы можете скачивать файлы