новый адрес пиратбит piratbit
MEGA NEWS Получи личный уникальный адрес сайта и защити себя от блокировок. Внимание количество ограничено!!!

iTunes

1+1

iTunes

мы

iTunes

1

iTunes

Чернобыль

iTunes

Ральф против интернета

Лицензия

ПШазам

Лицензия

Игра престолов

Лицензия

30
pack

ВАЖНО

!!Акция!!

Alien_RageХит недели

RePack

Resident Evil 21

ИГРА 18+

pack

RePack

Metro:Exodus

!!Акция!!

Alien_Rage

RePack

fifa19

RePack

Assassins Creed: Odyssey

RePack

NEED FOR SPEED™ PAYBACK

3 сезон

9 сезон

Бесстыжие 9 сезон

Все сериалы

все сериалы на PB.wtf

RePack

FAR CRY 5
Ребята, катастрофически не хватает 1900р. для оплаты серверов за АВГУСТ (всвязи с блокировками трафик упал в 3 раза), 1-2р., выручайте.
  

Нью-Джек-Сити / New Jack City (Марио Ван Пиблз) [1991 г., триллер, драма, криминал, BDRip, Профессиональный (многоголосый)] pb.wtf

Нью-Джек-Сити через торрент pb.wtf

Размер: 1.45 GB | Добавлен: 7 лет 2 мес. назад | Торрент скачан:27 раз
Скачать  

19-08-2012 08:28 Нью-Джек-Сити Скачать торрент  

Нью-Джек-Сити / New Jack City

Год выпуска: 1991
Страна: США
Жанр: триллер, драма, криминал
Продолжительность: 01:40:29
Перевод: Профессиональный (многоголосый)

Режиссер: Марио Ван Пиблз
Премьера в мире: 17 января 1991



В ролях: Уэсли Снайпс, Айс-Ти, Аллен Пэйн, Крис Рок, Марио Ван Пиблз, Майкл Мишель, Билл Нанн, Расселл Вонг, Билл Коббс, Кристофер Уильямс

Описание: Нино Браун удачлив в делах и в жизни. Он молод, богат, красив и подает большие надежды. Однако, настоящее его занятие — это торговля наркотиками, здесь его «золотое дно» во всех смыслах. Нино влиятелен и жесток в своем деле, он считает себя неуязвимым. Тем более, что мало кто противостоит ему, разве только всего лишь какие-то заурядные парни, полицейские… Гангстерский босс недооценил своих врагов…

Качество: BDRip
Формат: AVI
Видео кодек: XviD
Аудио кодек: AC3
Видео: 720x400 (1.80:1), 23.976 fps, 1829 kbps, 0.265 bit/pixel
Аудио: 48 kHz, AC3, 2/0 (L,R) ch, 224.00 kbps

Общее
Полное имя : D:\Раздачи\New Jack City.1991.BDRip.avi
Формат : AVI
Формат/Информация : Audio Video Interleave
Размер файла : 1,45 Гбайт
Продолжительность : 1 ч. 40 м.
Общий поток : 2063 Кбит/сек
Название фильма : Нью-Джек-Сити / New Jack City (1991) BDRip
Режиссёр : rip by Rulya74
Программа кодирования : VirtualDubModRus 1.5.10.2 (build 2542/release)
Библиотека кодирования : VirtualDubMod build 2542/release

Видео
Идентификатор : 0
Формат : MPEG-4 Visual
Профиль формата : Advanced Simple@L5
Параметр BVOP формата : 2
Параметр QPel формата : Нет
Параметр GMC формата : Без точки перехода
Параметр матрицы формата : Default (H.263)
Режим смешивания : Сжатый битовый поток
Идентификатор кодека : XVID
Идентификатор кодека/Подсказка : XviD
Продолжительность : 1 ч. 40 м.
Битрейт : 1829 Кбит/сек
Ширина : 720 пикселей
Высота : 400 пикселей
Соотношение сторон : 16:9
Частота кадров : 23,976 кадра/сек
Цветовое пространство : YUV
Субдискретизация насыщенности : 4:2:0
Битовая глубина : 8 бит
Тип развёртки : Прогрессивная
Метод сжатия : С потерями
Бит/(Пиксели*Кадры) : 0.265
Размер потока : 1,28 Гбайт (89%)
Библиотека кодирования : XviD 64

Аудио
Идентификатор : 1
Формат : AC-3
Формат/Информация : Audio Coding 3
Расширение режима : CM (complete main)
Идентификатор кодека : 2000
Продолжительность : 1 ч. 40 м.
Вид битрейта : Постоянный
Битрейт : 224 Кбит/сек
Каналы : 2 канала
Расположение каналов : Front: L R
Частота : 48,0 КГц
Битовая глубина : 16 бит
Метод сжатия : С потерями
Размер потока : 161 Мбайт (11%)
Выравнивание : Разделение по промежуткам
Продолжительность промежутка : 42 мс. (1,00 видеокадр)
Время предзагрузки промежутка : 500 мс.

pb.wtf



Скачать Нью-Джек-Сити через торрент http://pic.kartinco.top/images/1/h5qo1altu9.png Скачать фильм Нью-Джек-Сити через торрент бесплантно в хорошем качестве Описание: Нино Браун удачлив в делах и в жизни. Он молод, богат, красив и подает большие надежды. Однако, настоящее его занятие — это ... 10 10 1
Info! Золотая раздача, скачанное не засчитывается.
Торрент: Зарегистрирован [2012-08-19 08:28] · скачан: 27 раз
Статус: √ проверено
Размер: 1.45 GB
Как cкачать? Как скачать Нью-Джек-Сити через торрент | qTorrent


>> Регистрируемся здесь <<






Отзывы и комментарии о схеме читаем и пишем здесь: ---> Отзывы и комментарии о схеме

Новые благодарочки в телеграм довольных пользователей:
скриншот   скриншот   скриншот   скриншот   скриншот

11-02-2015 11:00 Нью-Джек-Сити Скачать торрент  

И так на Пирате нет старых фильмов, так ещё и никого нет на раздаче(((pb.wtf



    Дорогой пользователь! Огромная просьба, поблагодарите релизера, оцените раздачу и оставьте свои комментарий, если Вы скачали Нью-Джек-Сити через торрент бесплатно! Внесите свою лепту в развитие PiratBit!
    Комментировать посты могут только пользователи прошедшие не сложную регистрацию
    Показать сообщения:    

    Нью-Джек-Сити через торрент
    Скачать бесплатно Нью-Джек-Сити
    Нью-Джек-Сити скачать торрент
    Нью-Джек-Сити смотреть онлайн
    Cкачать фильм Нью-Джек-Сити бесплатно
    Нью-Джек-Сити скачать торрент в хорошем качестве
    Нью-Джек-Сити смотреть онлайн бесплатно в хорошем качестве


    Вы не можете начинать темы
    Вы не можете отвечать на сообщения
    Вы не можете редактировать свои сообщения
    Вы не можете удалять свои сообщения
    Вы не можете голосовать в опросах
    Вы не можете прикреплять файлы к сообщениям
    Вы можете скачивать файлы