1 сезон

1 сезон

iTunes

1

КиноПоиск HD

Кинопоиск HD

iTunes

13

1 сезон

RePack

30

Ultimate

ВАЖНО

ИГРА 18+

pack

RePack

MK11
pack

Легкие деньги

RePack

jed

RePack

fifa19

RePack

RDR2

RePack

NEED FOR SPEED™ PAYBACK

4 сезон

9 сезон

Бесстыжие 9 сезон

Все сериалы

все сериалы на PB.wtf

RePack

FAR CRY 5
  
Magnet ссылка

Суперполицейские / Super Troopers / 2001 / BDRip-AVC / лицензия (Джей Чандрашекхар) (комедия, криминал, детектив) pb.wtf

Суперполицейские через торрент pb.wtf

Размер: 1.45 GB | Добавлен: 8 лет 8 мес. назад | Торрент скачан:438 раз
Скачать  

19-08-2012 08:42 Суперполицейские Скачать торрент  

Суперполицейские / Super Troopers

Год выпуска: 2001
Страна: США
Жанр: комедия, криминал, детектив
Продолжительность: 01:40:20
Перевод: Профессиональный (многоголосый) (Лицензия) + Оригинал (Английский)

Режиссер: Джей Чандрашекхар
Премьера в мире: 19 января 2001



В ролях: Джои Керн, Джеффри Аренд, Эрик Столханске, Джей Чандрашекхар, Стив Лемм, Кевин Хеффернан, Пол Сотер, Камилль Хикман, Мариса Кохлан

Описание: Тони, Мак, Рэббит, Фостер и Фава — полицейские штата Вермонт, живут просто припеваючи. Патрулируя небольшую территорию, близь канадской границы, полицейские обленились настолько, что уже просто откровенно «забивают» на работу. Но когда в городе урезают бюджет, что начинает сильно угрожать их карману, 5 друзей объединяются в борьбе за выживание.

Чтобы вернуть все на круги свои необходимо раскрыть убийство и найти все возможные наркотики. Супер полицейские предпринимают попытку раскрыть преступления, тем самым спасти свою работу и доказать местному отделению полиции, что они — лучшие.

Качество: BDRip-AVC
Формат: MKV
Видео кодек: H.26x
Аудио кодек: AC3
Видео: 1024x554 (16:9), 23.976 fps, 1712 kbps, 0.126 bit/pixel
Аудио#1: 48 kHz, AC3, 2/0 (L,R) ch, 224.00 kbps (Многоголосый)
Аудио#2: 48 kHz, AC3, 2/0 (L,R) ch, 128.00 kbps (Английский)

Общее
Уникальный идентификатор : 171562721369497364701153464063594688998 (0x8111C73AE8553DBCA08C738CD5AD71E6)
Полное имя : D:\Раздачи\Super Troopers.2001.BDRip-AVC.mkv
Формат : Matroska
Версия формата : Version 2
Размер файла : 1,45 Гбайт
Продолжительность : 1 ч. 40 м.
Общий поток : 2066 Кбит/сек
Название фильма : Суперполицейские / Super Troopers (2001) BDRip-AVC rip by Rukya74
Дата кодирования : UTC 2012-08-18 10:49:40
Программа кодирования : mkvmerge v5.7.0 ('The Whirlwind') built on Jul 8 2012 20:08:51
Библиотека кодирования : libebml v1.2.3 + libmatroska v1.3.0

Видео
Идентификатор : 1
Формат : AVC
Формат/Информация : Advanced Video Codec
Профиль формата : High@L4.1
Параметр CABAC формата : Да
Параметр ReFrames формата : 13 кадров
Идентификатор кодека : V_MPEG4/ISO/AVC
Продолжительность : 1 ч. 40 м.
Битрейт : 1712 Кбит/сек
Ширина : 1024 пикселя
Высота : 554 пикселя
Соотношение сторон : 16:9
Частота кадров : 23,976 кадра/сек
Цветовое пространство : YUV
Субдискретизация насыщенности : 4:2:0
Битовая глубина : 8 бит
Тип развёртки : Прогрессивная
Бит/(Пиксели*Кадры) : 0.126
Размер потока : 1,17 Гбайт (81%)
Библиотека кодирования : x264 core 125 r2200 999b753
Настройки программы : cabac=1 / ref=13 / deblock=1:-3:-2 / analyse=0x3:0x113 / me=umh / subme=10 / psy=1 / psy_rd=1.00:0.00 / mixed_ref=1 / me_range=40 / chroma_me=1 / trellis=2 / 8x8dct=1 / cqm=0 / deadzone=21,11 / fast_pskip=1 / chroma_qp_offset=-2 / threads=12 / lookahead_threads=2 / sliced_threads=0 / nr=0 / decimate=1 / interlaced=0 / bluray_compat=0 / constrained_intra=0 / bframes=12 / b_pyramid=2 / b_adapt=1 / b_bias=0 / direct=3 / weightb=1 / open_gop=0 / weightp=2 / keyint=240 / keyint_min=23 / scenecut=40 / intra_refresh=0 / rc=2pass / mbtree=0 / bitrate=1712 / ratetol=1.0 / qcomp=0.60 / qpmin=10 / qpmax=51 / qpstep=4 / cplxblur=20.0 / qblur=0.5 / ip_ratio=1.40 / pb_ratio=1.30 / aq=1:1.00
Default : Да
Forced : Нет

Аудио #1
Идентификатор : 2
Формат : AC-3
Формат/Информация : Audio Coding 3
Расширение режима : CM (complete main)
Идентификатор кодека : A_AC3
Продолжительность : 1 ч. 40 м.
Вид битрейта : Постоянный
Битрейт : 224 Кбит/сек
Каналы : 2 канала
Расположение каналов : Front: L R
Частота : 48,0 КГц
Битовая глубина : 16 бит
Метод сжатия : С потерями
Размер потока : 161 Мбайт (11%)
Заголовок : Многоголосый закадровый [R5]
Язык : Russian
Default : Да
Forced : Нет

Аудио #2
Идентификатор : 3
Формат : AC-3
Формат/Информация : Audio Coding 3
Расширение режима : CM (complete main)
Идентификатор кодека : A_AC3
Продолжительность : 1 ч. 40 м.
Вид битрейта : Постоянный
Битрейт : 128 Кбит/сек
Каналы : 2 канала
Расположение каналов : Front: L R
Частота : 48,0 КГц
Битовая глубина : 16 бит
Метод сжатия : С потерями
Размер потока : 91,9 Мбайт (6%)
Заголовок : Оригинал
Язык : English
Default : Нет
Forced : Нет

pb.wtf



Скачать Суперполицейские через торрент https://pic.kartinco.top/images/1/45y8cctlnq.png Скачать фильм Суперполицейские через торрент бесплантно в хорошем качестве Описание: Тони, Мак, Рэббит, Фостер и Фава — полицейские штата Вермонт, живут просто припеваючи. Патрулируя небольшую территорию, близь ... 10 10 5
Info! Золотая раздача, скачанное не засчитывается.
Торрент: Зарегистрирован [2012-08-19 08:42] · скачан: 438 раз
Статус: √ проверено
Размер: 1.45 GB
Как cкачать? Как скачать Суперполицейские через торрент | UTorrent

28-11-2019 20:33  

Отключить всю рекламу на сайте

    Дорогой пользователь! Огромная просьба, поблагодарите релизера, оцените раздачу и оставьте свои комментарий, если Вы скачали Суперполицейские через торрент бесплатно! Внесите свою лепту в развитие PiratBit!
    Комментировать посты могут только пользователи прошедшие не сложную регистрацию
    Показать сообщения:    

    Суперполицейские через торрент
    Скачать бесплатно Суперполицейские
    Суперполицейские скачать торрент
    Суперполицейские смотреть онлайн
    Cкачать фильм Суперполицейские бесплатно
    Суперполицейские скачать торрент в хорошем качестве
    Суперполицейские смотреть онлайн бесплатно в хорошем качестве


    Вы не можете начинать темы
    Вы не можете отвечать на сообщения
    Вы не можете редактировать свои сообщения
    Вы не можете удалять свои сообщения
    Вы не можете голосовать в опросах
    Вы не можете прикреплять файлы к сообщениям
    Вы можете скачивать файлы