Ссылка на приватное зеркало нашего сайта всего за 1$. Внимание количество ограничено!!!

2 сезон

iTunes

1 сезон

1

iTunes

iTunes

iTunes

1 сезон

RePack

30

ИГРА 18+

pack

ВАЖНО

!!Акция!!

Alien_RageХит недели

RePack

MK11
pack

Забери бонус

RePack

jed

!!Акция!!

Alien_Rage

RePack

fifa19

RePack

Assassins Creed: Odyssey

RePack

NEED FOR SPEED™ PAYBACK

4 сезон

9 сезон

Бесстыжие 9 сезон

Все сериалы

все сериалы на PB.wtf

RePack

FAR CRY 5
  

Дневники мотылька / The Moth Diaries (Мэри Хэррон / Mary Harron) [2011 г., ужасы, драма, BDRip (720p), Любительский (двухголосый)] pb.wtf

Дневники мотылька через торрент pb.wtf

Размер: 3.61 GB | Добавлен: 8 лет 2 мес. назад | Торрент скачан:114 раз
Скачать  

19-08-2012 09:18 Дневники мотылька Скачать торрент  

Дневники мотылька / The Moth Diaries
Год выпуска: 2011
Страна: Канада, Ирландия
Жанр: ужасы, драма
Продолжительность: 01:22:18
Перевод: Любительский (двухголосый)
Субтитры: отсутствуют
Режиссер: Мэри Хэррон / Mary Harron
В ролях: Скотт Спидман, Энн Дэй-Джонс, Лили Коул, Сара Болджер, Сара Гадон
Описание: В центре событий элитная школа-интернат для девочек, в которой учится Люси Блэйк. Она ведет дневник, куда записывает все самое сокровенное. В интернате Люси знакомится с девушкой по имени Эрнесса. Эрнесса таинственна, у нее бледная кожа и гипнотический взгляд. Про нее ходят темные слухи, о том, что она притягивает к себе беды. Вскоре фантазии и реальность начинают смешиваться…
Качество: BDRip (720p)
Формат: MKV
Видео кодек: H.264
Аудио кодек: AC3, DTS
Видео: 1280 x 694; 23,976 fps; 4 590 Kbps
Аудио#1: Русский, AC3 2.0 192 Kbps 48,0 КГц(DVO)
Аудио#2: English, DTS 5.1 1536 Kbps 48,0 КГц(Оригинал)






D:\HDFILMS\The.Moth.Diaries.2011.720p.BDRip.Rus.Eng.mkv
General
Unique ID : 213475642025551140879705211049618891619 (0xA099E9C35FE64013BE0B4782C712E363)
Complete name : D:\HDFILMS\The.Moth.Diaries.2011.720p.BDRip.Rus.Eng.mkv
Format : Matroska
Format version : Version 2
File size : 3.61 GiB
Duration : 1h 22mn
Overall bit rate : 6 273 Kbps
Encoded date : UTC 2012-08-15 20:33:25
Writing application : mkvmerge v5.3.0 ('I could have danced') built on Feb 9 2012 10:38:07
Writing library : libebml v1.2.3 + libmatroska v1.3.0
Video #1
ID : 1
Format : AVC
Format/Info : Advanced Video Codec
Format profile : High@L4.1
Format settings, CABAC : Yes
Format settings, ReFrames : 8 frames
Codec ID : V_MPEG4/ISO/AVC
Duration : 1h 22mn
Bit rate : 4 580 Kbps
Width : 1 280 pixels
Height : 694 pixels
Display aspect ratio : 16:9
Frame rate : 23.976 fps
Color space : YUV
Chroma subsampling : 4:2:0
Bit depth : 8 bits
Scan type : Progressive
Bits/(Pixel*Frame) : 0.215
Stream size : 2.56 GiB (71%)
Title : The.Moth.Diaries.2011.BluRay.720p.DTS.x264-CHD
Writing library : x264 core 120 r2146 bcd41db
Encoding settings : cabac=1 / ref=8 / deblock=1:-3:-3 / analyse=0x3:0x113 / me=umh / subme=10 / psy=1 / psy_rd=1.00:0.05 / mixed_ref=1 / me_range=32 / chroma_me=1 / trellis=2 / 8x8dct=1 / cqm=0 / deadzone=21,11 / fast_pskip=0 / chroma_qp_offset=-2 / threads=8 / sliced_threads=0 / nr=0 / decimate=1 / interlaced=0 / bluray_compat=0 / constrained_intra=0 / bframes=6 / b_pyramid=2 / b_adapt=2 / b_bias=0 / direct=3 / weightb=1 / open_gop=0 / weightp=2 / keyint=250 / keyint_min=23 / scenecut=40 / intra_refresh=0 / rc=2pass / mbtree=0 / bitrate=4580 / ratetol=1.0 / qcomp=0.70 / qpmin=0 / qpmax=69 / qpstep=4 / cplxblur=20.0 / qblur=0.5 / ip_ratio=1.40 / pb_ratio=1.30 / aq=2:0.90
Language : English
Default : No
Forced : No
Audio #2
ID : 2
Format : AC-3
Format/Info : Audio Coding 3
Mode extension : CM (complete main)
Codec ID : A_AC3
Duration : 1h 22mn
Bit rate mode : Constant
Bit rate : 192 Kbps
Channel(s) : 2 channels
Channel positions : Front: L R
Sampling rate : 48.0 KHz
Bit depth : 16 bits
Compression mode : Lossy
Stream size : 113 MiB (3%)
Title : DVO AC3 2.0 192 kbps
Language : Russian
Default : No
Forced : No
Audio #3
ID : 3
Format : DTS
Format/Info : Digital Theater Systems
Codec ID : A_DTS
Duration : 1h 22mn
Bit rate mode : Constant
Bit rate : 1 510 Kbps
Channel(s) : 6 channels
Channel positions : Front: L C R, Side: L R, LFE
Sampling rate : 48.0 KHz
Bit depth : 24 bits
Compression mode : Lossy
Stream size : 889 MiB (24%)
Title : Original DTS 5.1 1536 kbps
Language : English
Default : No
Forced : No

pb.wtf



Скачать Дневники мотылька через торрент http://pic.kartinco.top/images/1/2c52l1yc7y.jpg Скачать фильм Дневники мотылька через торрент бесплантно в хорошем качестве Описание: В центре событий элитная школа-интернат для девочек, в которой учится Люси Блэйк. Она ведет дневник, куда записывает все самое ... 10 10 1
Info! Золотая раздача, скачанное не засчитывается.
Торрент: Зарегистрирован [2012-08-19 09:18] · скачан: 114 раз
Статус: √ проверено
Размер: 3.61 GB
Как cкачать? Как скачать Дневники мотылька через торрент | qTorrent

% Раздел Тема Автор DL S | L
T Фильмы 2011 [ 887 MB ] Дневники мотылька / The Moth Diaries [2011 Ирландия DVDRip Любительский ] monty_f1 Скачать
1 | 0

28-11-2019 20:33  

Отключить всю рекламу на сайте

19-08-2012 09:36 Дневники мотылька Скачать торрент  

как фильмец ?pb.wtf



19-08-2012 09:46 Дневники мотылька Скачать торрент  

Kinopoisk: 4.943pb.wtf



    Дорогой пользователь! Огромная просьба, поблагодарите релизера, оцените раздачу и оставьте свои комментарий, если Вы скачали Дневники мотылька через торрент бесплатно! Внесите свою лепту в развитие PiratBit!
    Комментировать посты могут только пользователи прошедшие не сложную регистрацию
    Показать сообщения:    

    Дневники мотылька через торрент
    Скачать бесплатно Дневники мотылька
    Дневники мотылька скачать торрент
    Дневники мотылька смотреть онлайн
    Cкачать фильм Дневники мотылька бесплатно
    Дневники мотылька скачать торрент в хорошем качестве
    Дневники мотылька смотреть онлайн бесплатно в хорошем качестве


    Вы не можете начинать темы
    Вы не можете отвечать на сообщения
    Вы не можете редактировать свои сообщения
    Вы не можете удалять свои сообщения
    Вы не можете голосовать в опросах
    Вы не можете прикреплять файлы к сообщениям
    Вы можете скачивать файлы