Ссылка на приватное зеркало нашего сайта всего за 1$. Внимание количество ограничено!!!

2 сезон

iTunes

1 сезон

1

2 сезон

2 сезон

iTunes

1 сезон

RePack

30

Ultimate

ВАЖНО

ИГРА 18+

pack

RePack

MK11
pack

Забери бонус

RePack

jed

!!Акция!!

Alien_Rage

RePack

fifa19

RePack

Assassins Creed: Odyssey

RePack

NEED FOR SPEED™ PAYBACK

4 сезон

9 сезон

Бесстыжие 9 сезон

Все сериалы

все сериалы на PB.wtf

RePack

FAR CRY 5
  

Диктатор / The Dictator (Ларри Чарльз) [2012 г., Комедия, BDRemux, VO + Оригинал] pb.wtf

Диктатор через торрент pb.wtf

Размер: 23.96 GB | Добавлен: 8 лет 3 мес. назад | Торрент скачан:27 раз
Скачать  

19-08-2012 15:34 Диктатор Скачать торрент  

Диктатор / The Dictator

Год выпуска: 2012
Страна: США, Four by Two Films / Kanzaman S.A
Жанр: Комедия
Продолжительность: 01:38:47
Перевод: Одноголосый закадровый (Антон Киреев по переводу Дмитрия Goblin'a Пучкова) + Оригинал

Режиссер: Ларри Чарльз

В ролях: Саша Барон Коэн, Анна Фэрис, Джейсон Манцукас, Мишель Берг, Саид Бадрия, Бен Кингсли, Роки Ситрон, Лиам Кампора, Аасиф Мандви, Ризван Манжи, Рик Чэмберс, Эльсайед Мохамед, Адиль Ахтар, Орасио Санс, Елена Гуд, Назанин Хома, Келсли Руволо

Описание: Героическая история диктатора, который рискует своей жизнью, чтобы ни в коем случае не допустить демократию в свою столь любовно угнетаемую страну.

Качество: BDRemux
Формат: MKV
Видео кодек: MPEG-4 AVC/H.264
Аудио кодек: AC-3, DTS-HD MA
Видео: AVC, 1920x1080 (16:9), 23.976 fps, 32.2 Mbps (0.647 bit/pixel)
Аудио#1: DTS, 48.0 KHz, 6 ch, 755 Kbps, CBR (Russian) Одноголосый закадровый (Антон Киреев по переводу Дмитрия Goblin'a Пучкова)
Аудио#2: DTS MA / Core, 48.0 KHz, 6 ch, 2 626 Kbps / 1 510 Kbps, VBR (English)
Аудио#3: AC-3, 48.0 KHz, 2 ch, 224 Kbps, CBR (English)

Субтитры: Russian

Формат : Matroska
Версия формата : Version 2
Размер файла : 24,0 Гбайт
Продолжительность : 1 ч. 38 м.
Режим общего битрейта : Переменный
Общий поток : 34,7 Мбит/сек
Название фильма : The Dictator
Дата кодирования : UTC 2012-08-17 15:16:45
Программа кодирования : mkvmerge v5.7.0 ('The Whirlwind') built on Jul 8 2012 20:08:51
Библиотека кодирования : libebml v1.2.3 + libmatroska v1.3.0

Видео
Идентификатор : 1
Формат : AVC
Формат/Информация : Advanced Video Codec
Профиль формата : High@L4.1
Параметр CABAC формата : Да
Параметр ReFrames формата : 2 кадра
Параметр GOP формата : M=1, N=10
Идентификатор кодека : V_MPEG4/ISO/AVC
Продолжительность : 1 ч. 38 м.
Вид битрейта : Переменный
Битрейт : 32,0 Мбит/сек
Ширина : 1920 пикселей
Высота : 1080 пикселей
Соотношение сторон : 16:9
Частота кадров : 23,976 кадра/сек
Цветовое пространство : YUV
Субдискретизация насыщенности : 4:2:0
Битовая глубина : 8 бит
Тип развёртки : Прогрессивная
Бит/(Пиксели*Кадры) : 0.644
Размер потока : 22,1 Гбайт (92%)
Язык : English
Default : Да
Forced : Нет

Аудио #1
Идентификатор : 2
Формат : AC-3
Формат/Информация : Audio Coding 3
Расширение режима : CM (complete main)
Идентификатор кодека : A_AC3
Продолжительность : 1 ч. 38 м.
Вид битрейта : Постоянный
Битрейт : 448 Кбит/сек
Каналы : 6 каналов
Расположение каналов : Front: L C R, Side: L R, LFE
Частота : 48,0 КГц
Битовая глубина : 16 бит
Метод сжатия : С потерями
Размер потока : 317 Мбайт (1%)
Язык : Russian
Default : Да
Forced : Нет

Аудио #2
Идентификатор : 3
Формат : DTS
Формат/Информация : Digital Theater Systems
Профиль формата : MA / Core
Идентификатор кодека : A_DTS
Продолжительность : 1 ч. 38 м.
Вид битрейта : Переменный
Битрейт : 1576 Кбит/сек / 1510 Кбит/сек
Каналы : 6 каналов
Расположение каналов : Front: L C R, Side: L R, LFE
Частота : 48,0 КГц
Битовая глубина : 24 бит
Метод сжатия : Без потерь / Lossy
Заголовок : Lossless
Язык : English
Default : Нет
Forced : Нет

Меню
00:00:00.000 : en:Chapter 00
00:09:41.038 : en:Chapter 01
00:14:36.875 : en:Chapter 02
00:22:35.770 : en:Chapter 03
00:27:06.207 : en:Chapter 04
00:32:42.376 : en:Chapter 05
00:38:42.278 : en:Chapter 06
00:45:23.553 : en:Chapter 07
00:49:48.276 : en:Chapter 08
01:01:58.464 : en:Chapter 09
01:09:39.758 : en:Chapter 10
01:16:51.731 : en:Chapter 11
01:21:51.906 : en:Chapter 12
01:28:48.656 : en:Chapter 13

pb.wtf



Скачать Диктатор через торрент http://pic.lg.ua/x/16/5d11f1/6610d418.png Скачать фильм Диктатор через торрент бесплантно в хорошем качестве Описание: Героическая история диктатора, который рискует своей жизнью, чтобы ни в коем случае не допустить демократию в свою столь любовно ... 3 10 2
Info! Золотая раздача, скачанное не засчитывается.
Торрент: Зарегистрирован [2012-08-19 15:34] · скачан: 27 раз
Статус: √ проверено
Размер: 23.96 GB
Как cкачать? Как скачать Диктатор через торрент | qTorrent

% Раздел Тема Автор DL S | L
Фильмы с авторской озвучкой [ 1.46 GB ] Диктатор / The Dictator [2012 BDRip-AVC] [Расширенная версия] AVO [А. Карповский] sokol_ok Скачать
2 | 0
Фильмы с авторской озвучкой [ 746 MB ] Диктатор / The Dictator [2012 BDRip-AVC] [Расширенная версия] AVO [А. Карповский] sokol_ok Скачать
2 | 0
Фильмы с авторской озвучкой [ 3.17 GB ] Диктатор / The Dictator [2012 BDRip-AVC] [Расширенная версия] AVO [А. Карповский А. Киреев М. Чадов] + VO [Е. Черемисинов] sokol_ok Скачать
2 | 0
Фильмы [HD 720p, 1080p] (Хороший звук DUB, MVO) [ 5.61 GB ] Диктатор / The Dictator [2012 BDRip 720 DUB ] Ворон Скачать
2 | 0
Фильмы 2012 [ 1.45 GB ] Диктатор / The Dictator / 2012 / HDRip [ DUB [ лицензия ] Ворон Скачать
1 | 1
Фильмы (HD 720p, 1080p) (48-60 fps) [ 13.01 GB ] Великий диктатор / The Great Dictator [1940 военный BDRip 1080p / 60 FPS многоголосый] Tiberiumsun69 Скачать
2 | 0
Фильмы [HD 720p, 1080p] (Хороший звук DUB, MVO) [ 5.61 GB ] Диктатор / The Dictator [2012 BDRip 720 DUB ] DEVI Скачать
1 | 0


Последний раз редактировалось: AlexKa (2012-08-19 15:41), всего редактировалось 2 раз(а)

28-11-2019 20:33  

Отключить всю рекламу на сайте

19-08-2012 15:37 Диктатор Скачать торрент  

Сэмплpb.wtf



19-08-2012 16:52 Диктатор Скачать торрент  

Где раздающий?pb.wtf



22-08-2012 15:08 Диктатор Скачать торрент  

Только перевод Гоблина? Или голос даже не Пучкова?pb.wtf



    Дорогой пользователь! Огромная просьба, поблагодарите релизера, оцените раздачу и оставьте свои комментарий, если Вы скачали Диктатор через торрент бесплатно! Внесите свою лепту в развитие PiratBit!
    Комментировать посты могут только пользователи прошедшие не сложную регистрацию
    Показать сообщения:    

    Диктатор через торрент
    Скачать бесплатно Диктатор
    Диктатор скачать торрент
    Диктатор смотреть онлайн
    Cкачать фильм Диктатор бесплатно
    Диктатор скачать торрент в хорошем качестве
    Диктатор смотреть онлайн бесплатно в хорошем качестве


    Вы не можете начинать темы
    Вы не можете отвечать на сообщения
    Вы не можете редактировать свои сообщения
    Вы не можете удалять свои сообщения
    Вы не можете голосовать в опросах
    Вы не можете прикреплять файлы к сообщениям
    Вы можете скачивать файлы