1 сезон

3 сезон

iTunes

1

iTunes

MVO

iTunes

13

1 сезон

RePack

30

Deluxe

pack

Лицензия

ВАЖНО

ИГРА 18+

pack

RePack

MK11

RePack

jed

RePack

fifa19

RePack

RDR2

RePack

NEED FOR SPEED™ PAYBACK

4 сезон

9 сезон

Бесстыжие 9 сезон

Все сериалы

все сериалы на PB.wtf

RePack

FAR CRY 5

Anonymous, добрый день, мы катастрофически не успеваем собрать деньги на оплату серверов, помогите нам пожалуйста 5,10,15р., для нас важна любая помощь . В качестве благодарности мы отключим Вам всю рекламу на сайте (укажите свой ник в строку Ваше имя)!

×
  
Magnet ссылка

Иллюзия будущего / 2033 (Франциско Ларесгоит / Francisco Laresgoiti) [2009, фантастика, приключения, DVD5] R5 pb.wtf

Иллюзия будущего через торрент pb.wtf

Размер: 4.04 GB | Добавлен: 8 лет 11 мес. назад | Торрент скачан:70 раз
Скачать  

19-08-2012 16:58 Иллюзия будущего Скачать торрент  


Иллюзия будущего / 2033
Страна: Мексика
Студия: Casa de Cine, La, Filmica Villaparaiso
Жанр: фантастика, приключения
Год выпуска: 2009
Мировая премьера: 24 сентября 2009
Дата выхода DVD: 14 августа 2012
Продолжительность: 01:28:48
Перевод: Профессиональный (многоголосый закадровый) [Лицензия]
Cубтитры: русские
Оригинальная аудиодорожка: испанский
Режиссер: Франциско Ларесгоит / Francisco Laresgoiti
В ролях: Мигель Кутюрье, Сандра Эчеверриа, Алонсо Эчанове, Луис Эрнесто Франко, Хенаро Эрнандез, Клаудио Лафарга, Рауль Мендес, Марко Антонио Тревиньо, Аарон Кампос
Описание: 2033 год, Мехико-Сити, ныне — Вальпараисо. После кровавой революции военный режим восстановил порядок в обществе: все партии, общественные и религиозные организации и движения запрещены, пресекаются любые протестные выступления. Для целей общественного процветания все и вся контролируют корпорации. Массами управляет синтетическая еда — «ПЕКТИ».
Пабло — молодой член правящей элиты, преданный ей и искренне верящий в дело хунты. Его ждет прекрасная военная карьера. Встреча с одним из подпольщиков, священником Мигелем, в одночасье меняет жизнь Пабло. Он узнает, что его настоящий отец был лидером революционного движения. Пабло присоединяется к оппозиции, готовящей восстание по свержению военного режима.

Бонусы: Нет

Релиз группы:
Качество: DVD5 R5
Формат: DVD-Video
Видео кодек: MPEG2
Аудио кодек: AC3
Видео: PAL 16:9 (720x576(0.536)) MPEG Video, 25,000 кадр/сек, 5560 Кбит/сек
Аудио #1: Russian (Dolby AC3, 6 ch) 384 Кбит/сек, 48,0 КГц
Аудио #2: Russian (Dolby AC3, 2 ch) 192 Кбит/сек, 48,0 КГц
Аудио #3: English (Dolby AC3, 2 ch) 192 Кбит/сек, 48,0 КГц



Title: Illjuzija.buduwego.2009.DVD5
Size: 4.04 Gb ( 4 239 458,00 KBytes ) - DVD-5
Enabled regions: 1, 2, 3, 4, 5, 6, 7, 8

VTS_01 :
Play Length: 00:00:20+{00:00:20}+{00:00:20}
Video: PAL 4:3 (720x576) VBR
Audio:
Russian (Dolby AC3, 2 ch)
English (Dolby AC3, 6 ch)
English (Dolby AC3, 6 ch)

VTS_02 :
Play Length: 01:28:48
Video: PAL 16:9 (720x576) VBR, Auto Pan&Scan, Auto Letterboxed
Audio:
Russian (Dolby AC3, 6 ch)
Russian (Dolby AC3, 2 ch)
English (Dolby AC3, 2 ch)
Subtitles:
Russian

* Menus Information *

VIDEO_TS Menu
Video:
PAL 4:3 (720x576) VBR
English Language Unit :
Title Menu

VTS_01 Menu
Video:
PAL 4:3 (720x576) VBR
Audio:
Not specified (Dolby AC3, 2 ch)
English Language Unit :
Root Menu
Chapter (PTT) Menu

VTS_02 Menu
Video:
PAL 4:3 (720x576) VBR
English Language Unit :
Root Menu
Subpicture Menu
Audio Menu
Общее
Полное имя : J:\Новинки 2012\Illjuzija.buduwego.2009.DVD5\VIDEO_TS\VTS_02_2.VOB
Формат : MPEG-PS
Размер файла : 1024 Мбайт
Продолжительность : 22 м.
Режим общего битрейта : Переменный
Общий поток : 6457 Кбит/сек

Видео
Идентификатор : 224 (0xE0)
Формат : MPEG Video
Версия формата : Version 2
Профиль формата : Main@Main
Параметр BVOP формата : Да
Параметр матрицы формата : Выборочная
Параметр GOP формата : M=3, N=12
Продолжительность : 22 м.
Вид битрейта : Переменный
Битрейт : 5560 Кбит/сек
Максимальный битрейт : 8500 Кбит/сек
Ширина : 720 пикселей
Высота : 576 пикселей
Соотношение сторон : 16:9
Частота кадров : 25,000 кадров/сек
Стандарт вещания : PAL
Цветовое пространство : YUV
Субдискретизация насыщенности : 4:2:0
Битовая глубина : 8 бит
Тип развёртки : Чересстрочная
Порядок развёртки : Верхнее поле первое
Метод сжатия : С потерями
Бит/(Пиксели*Кадры) : 0.536
Размер потока : 882 Мбайт (86%)
Основные цвета : BT.470-2 System B, BT.470-2 System G
Характеристики трансфера : BT.470-2 System B, BT.470-2 System G
Коэффициенты матрицы : SMPTE 170M

Аудио #1
Идентификатор : 189 (0xBD)-128 (0x80)
Формат : AC-3
Формат/Информация : Audio Coding 3
Расширение режима : CM (complete main)
Параметр Endianness формата : Big
Режим смешивания : DVD-Video
Продолжительность : 22 м.
Вид битрейта : Постоянный
Битрейт : 384 Кбит/сек
Каналы : 6 каналов
Расположение каналов : Front: L C R, Side: L R, LFE
Частота : 48,0 КГц
Битовая глубина : 16 бит
Метод сжатия : С потерями
Задержка видео : -512 мс.
Размер потока : 60,9 Мбайт (6%)

Аудио #2
Идентификатор : 189 (0xBD)-129 (0x81)
Формат : AC-3
Формат/Информация : Audio Coding 3
Расширение режима : CM (complete main)
Параметр Endianness формата : Big
Режим смешивания : DVD-Video
Продолжительность : 22 м.
Вид битрейта : Постоянный
Битрейт : 192 Кбит/сек
Каналы : 2 канала
Расположение каналов : Front: L R
Частота : 48,0 КГц
Битовая глубина : 16 бит
Метод сжатия : С потерями
Задержка видео : -416 мс.
Размер потока : 30,4 Мбайт (3%)

Аудио #3
Идентификатор : 189 (0xBD)-130 (0x82)
Формат : AC-3
Формат/Информация : Audio Coding 3
Расширение режима : CM (complete main)
Параметр Endianness формата : Big
Режим смешивания : DVD-Video
Продолжительность : 22 м.
Вид битрейта : Постоянный
Битрейт : 192 Кбит/сек
Каналы : 2 канала
Расположение каналов : Front: L R
Частота : 48,0 КГц
Битовая глубина : 16 бит
Метод сжатия : С потерями
Задержка видео : -416 мс.
Размер потока : 30,4 Мбайт (3%)

Текст
Идентификатор : 189 (0xBD)-32 (0x20)
Формат : RLE
Формат/Информация : Run-length encoding
Режим смешивания : DVD-Video
Задержка видео : 1 с. 280 мс.










pb.wtf



Скачать Иллюзия будущего через торрент http://i40.fastpic.ru/big/2012/0818/21/e4e13d254f24df020127036d31801021.png Скачать фильм Иллюзия будущего через торрент бесплантно в хорошем качестве Описание: 2033 год, Мехико-Сити, ныне — Вальпараисо. После кровавой революции военный режим восстановил порядок в обществе: все партии, ... 4.9 10 7
Info! Золотая раздача, скачанное не засчитывается.
Торрент: Зарегистрирован [2012-08-19 16:58] · скачан: 70 раз
Статус: √ проверено
Размер: 4.04 GB
Как cкачать? Как скачать Иллюзия будущего через торрент | UTorrent

28-11-2019 20:33  

Отключить всю рекламу на сайте

19-08-2012 17:56 Иллюзия будущего Скачать торрент  

Рейтинг 3.72 пугаетpb.wtf



19-08-2012 17:57 Иллюзия будущего Скачать торрент  

Darkkiller32 Да ужpb.wtf



    Дорогой пользователь! Огромная просьба, поблагодарите релизера, оцените раздачу и оставьте свои комментарий, если Вы скачали Иллюзия будущего через торрент бесплатно! Внесите свою лепту в развитие PiratBit!
    Комментировать посты могут только пользователи прошедшие не сложную регистрацию
    Показать сообщения:    

    Иллюзия будущего через торрент
    Скачать бесплатно Иллюзия будущего
    Иллюзия будущего скачать торрент
    Иллюзия будущего смотреть онлайн
    Cкачать фильм Иллюзия будущего бесплатно
    Иллюзия будущего скачать торрент в хорошем качестве
    Иллюзия будущего смотреть онлайн бесплатно в хорошем качестве


    Вы не можете начинать темы
    Вы не можете отвечать на сообщения
    Вы не можете редактировать свои сообщения
    Вы не можете удалять свои сообщения
    Вы не можете голосовать в опросах
    Вы не можете прикреплять файлы к сообщениям
    Вы можете скачивать файлы