2 сезон

iTunes

MVO

1

2 сезон

iTunes

iTunes

1 сезон

RePack

30

Новинка

ВАЖНО

ИГРА 18+

pack

RePack

MK11
pack

Легкие деньги

RePack

jed

RePack

fifa19

RePack

RDR2

RePack

NEED FOR SPEED™ PAYBACK

4 сезон

9 сезон

Бесстыжие 9 сезон

Все сериалы

все сериалы на PB.wtf

RePack

FAR CRY 5

Anonymous, добрый день, мы не успеваем собрать деньги на оплату серверов за декабрь и январь, помогите нам пожалуйста в это трудное время. В качестве благодарности мы отключим Вам всю рекламу на сайте (укажите свой ник в строку Ваше имя)!

×
  
Magnet ссылка

Неделя до свадьбы / 2011 / DVDRip (Филипп Дмитриев) (комедия, мелодрама, Оригинал) pb.wtf

Неделя до свадьбы через торрент pb.wtf

Размер: 1.42 GB | Добавлен: 8 лет 4 мес. назад | Торрент скачан:244 раза
Скачать  

20-08-2012 11:26 Неделя до свадьбы Скачать торрент  

Неделя до свадьбы
«У него есть только семь дней...»
Год выпуска: 2011
Страна: Россия
Жанр: комедия, мелодрама
Продолжительность: 01:09:00
Перевод: Оригинал

Режиссер: Филипп Дмитриев
Продюссер: Юрий Чернов
Сценарий: Филипп Дмитриев, Елена Шнейдер, Вячеслав Харчук



В ролях: Роман Ишимов, Александр Сорокин, Гордей Шувляков, Татьяна Сидорова, Лидия Борзилова, Александр Сидоров, Стас Чибриков, Сева Мокин, Павел Чернов, Александр Петенёв, Илья Ледяев

Описание: Эта веселая романтическая комедия рассказывает о молодых музыкантах, которые заняты обычными для своего возраста делами — поиском денег на доширак и любви всей своей жизни. Герой фильма любовь находит, но тут же узнаёт, что девушка выходит замуж за другого. У парня и его друзей всего неделя, чтобы расстроить свадьбу.

Качество: DVDRip
Формат: AVI
Видео кодек: XviD
Аудио кодек: MP3
Видео: 720x402 (1.79:1), 25 fps, XviD build 63, 2974 kbps, 0.41 bit/pix
Аудио#1: 48 kHz, МР3, 2 сн, 192.00 kbps
General
Complete name : E:\Торрент фильмы\Nedelya do svadby.avi
Format : AVI
Format/Info : Audio Video Interleave
File size : 1.42 GiB
Duration : 1h 7mn
Overall bit rate : 2 988 Kbps

Video
ID : 0
Format : MPEG-4 Visual
Format profile : Advanced Simple@L5
Format settings, BVOP : Yes
Format settings, QPel : No
Format settings, GMC : No warppoints
Format settings, Matrix : Default (H.263)
Codec ID : XVID
Codec ID/Hint : XviD
Duration : 1h 7mn
Bit rate : 2 783 Kbps
Width : 720 pixels
Height : 402 pixels
Display aspect ratio : 16:9
Frame rate : 25.000 fps
Resolution : 8 bits
Colorimetry : 4:2:0
Scan type : Progressive
Bits/(Pixel*Frame) : 0.385
Stream size : 1.32 GiB (93%)
Writing library : XviD 63

Audio
ID : 1
Format : MPEG Audio
Format version : Version 1
Format profile : Layer 3
Codec ID : 55
Codec ID/Hint : MP3
Duration : 1h 7mn
Bit rate mode : Constant
Bit rate : 192 Kbps
Channel(s) : 2 channels
Sampling rate : 48.0 KHz
Stream size : 93.1 MiB (6%)
Alignment : Split accross interleaves
Interleave, duration : 24 ms (0.60 video frame)
Writing library : LAME3.98.4ЄЄЄЄЄЄЄЄЄ

pb.wtf



Скачать Неделя до свадьбы через торрент http://pic.kartinco.top/images/1/4hqeo6whog.jpg Скачать фильм Неделя до свадьбы через торрент бесплантно в хорошем качестве Описание: Эта веселая романтическая комедия рассказывает о молодых музыкантах, которые заняты обычными для своего возраста делами — поиском ... 5 10 1
Info! Золотая раздача, скачанное не засчитывается.
Торрент: Зарегистрирован [2012-08-20 11:26] · скачан: 244 раз
Статус: # сомнительно
Размер: 1.42 GB
Как cкачать? Как скачать Неделя до свадьбы через торрент | UTorrent

28-11-2019 20:33  

Отключить всю рекламу на сайте

20-08-2012 11:43 Неделя до свадьбы Скачать торрент  

# - сомнительно.
Ставится: если раздача выполнена с незначительными нарушениями, с неизвестными параметрами рипа лосслес, раздача имеет сомнительные видео и аудио тех. параметры.

Необрезаны черные полосы.
pb.wtf



    Дорогой пользователь! Огромная просьба, поблагодарите релизера, оцените раздачу и оставьте свои комментарий, если Вы скачали Неделя до свадьбы через торрент бесплатно! Внесите свою лепту в развитие PiratBit!
    Комментировать посты могут только пользователи прошедшие не сложную регистрацию
    Показать сообщения:    

    Неделя до свадьбы через торрент
    Скачать бесплатно Неделя до свадьбы
    Неделя до свадьбы скачать торрент
    Неделя до свадьбы смотреть онлайн
    Cкачать фильм Неделя до свадьбы бесплатно
    Неделя до свадьбы скачать торрент в хорошем качестве
    Неделя до свадьбы смотреть онлайн бесплатно в хорошем качестве


    Вы не можете начинать темы
    Вы не можете отвечать на сообщения
    Вы не можете редактировать свои сообщения
    Вы не можете удалять свои сообщения
    Вы не можете голосовать в опросах
    Вы не можете прикреплять файлы к сообщениям
    Вы можете скачивать файлы