1 сезон

1 сезон

iTunes

1

КиноПоиск HD

Кинопоиск HD

iTunes

13

1 сезон

RePack

30

Новинка

ВАЖНО

ИГРА 18+

pack

RePack

MK11
pack

Легкие деньги

RePack

jed

RePack

fifa19

RePack

RDR2

RePack

NEED FOR SPEED™ PAYBACK

4 сезон

9 сезон

Бесстыжие 9 сезон

Все сериалы

все сериалы на PB.wtf

RePack

FAR CRY 5
  
Magnet ссылка

Остров / The Island / 2005 / BDRip (Майкл Бэй) (триллер, фантастика, боевик, Rus. DUB + Ukr. DUB + Одноголосный закадровый ( В.Королев)) pb.wtf

Остров через торрент pb.wtf

Размер: 2.18 GB | Добавлен: 8 лет 7 мес. назад | Торрент скачан:392 раза
Скачать  

21-08-2012 15:02 Остров Скачать торрент  

Остров / The Island
«Вы были избраны.»
Год выпуска: 2005
Страна: США
Жанр: триллер, фантастика, боевик
Продолжительность: 02:15:59
Перевод: Rus. Дубляж + Ukr. Дубляж + Одноголосный закадровый ( В.Королев)

Режиссер: Майкл Бэй
Продюссер: Майкл Бэй, Йен Брюс, Уолтер Ф. Паркс
Сценарий: Алекс Куртцман, Роберто Орси, Кэспиан Тредуэлл-Оуэн

Бюджет: $126 000 000
Премьера в мире: 11 июля 2005



В ролях: Юэн МакГрегор, Скарлетт Йоханссон, Джимон Хунсу, Шон Бин, Стив Бушеми, Майкл Кларк Дункан, Итэн Филлипс, Брайан Степанек, Ноа Тишби, Сиобэн Флинн

Описание: Линкольн Шесть-Эхо — житель на вид утопического, но охраняемого поселения середины XXI века. Как и все обитатели этого тщательно контролируемого пространства, Линкольн надеется оказаться среди тех, кого отправят на «Остров» — якобы последнее незагрязненное место на планете. Но очень скоро Линкольн обнаруживает, что абсолютно всё, что касается его существования — ложь.

Качество: BDRip
Формат: AVI
Видео кодек: XviD
Аудио кодек: AC3
Видео: XviD, 720x304, 1522 kbps, 0.287 bit/pixel
Аудио#1: 48 kHz, AC3 5/1. 6 ch, 384.00 kbps / Русский дубляж
Аудио#2: 48 kHz, AC3 2/0. 2 ch, 192.00 kbps / Украинский дубляж
Аудио#3: 48 kHz, AC3 2/0. 6 ch, 192.00 kbps / Одноголосный закадровый ( В.Королев)

General
Complete name : G:\Рип\The.Island.2005.BDRip.avi
Format : AVI
Format/Info : Audio Video Interleave
Format profile : OpenDML
File size : 2.18 GiB
Duration : 2h 15mn
Overall bit rate : 2 297 Kbps
Movie name : Остров / The Island (2005) BDRip
Director : Rulya74 [720p]
Writing application : VirtualDubModRus 1.5.10.2 (build 2542/release)
Writing library : VirtualDubMod build 2542/release

Video
ID : 0
Format : MPEG-4 Visual
Format profile : Advanced Simple@L5
Format settings, BVOP : Yes
Format settings, QPel : No
Format settings, GMC : No warppoints
Format settings, Matrix : Default (MPEG)
Codec ID : XVID
Codec ID/Hint : XviD
Duration : 2h 15mn
Bit rate : 1 505 Kbps
Width : 720 pixels
Height : 304 pixels
Display aspect ratio : 2.35:1
Frame rate : 23.976 fps
Resolution : 8 bits
Colorimetry : 4:2:0
Scan type : Progressive
Bits/(Pixel*Frame) : 0.287
Stream size : 1.43 GiB (66%)
Writing library : XviD 1.2.0.dev47 (UTC 2006-11-01)

Audio #1
ID : 1
Format : AC-3
Format/Info : Audio Coding 3
Codec ID : 2000
Duration : 2h 15mn
Bit rate mode : Constant
Bit rate : 384 Kbps
Channel(s) : 6 channels
Channel positions : Front: L C R, Surround: L R, LFE
Sampling rate : 48.0 KHz
Stream size : 374 MiB (17%)
Alignment : Split accross interleaves
Interleave, duration : 42 ms (1.00 video frame)
Interleave, preload duration : 500 ms

Audio #2
ID : 2
Format : AC-3
Format/Info : Audio Coding 3
Codec ID : 2000
Duration : 2h 15mn
Bit rate mode : Constant
Bit rate : 192 Kbps
Channel(s) : 2 channels
Channel positions : L R
Sampling rate : 48.0 KHz
Stream size : 187 MiB (8%)
Alignment : Split accross interleaves
Interleave, duration : 42 ms (1.00 video frame)
Interleave, preload duration : 500 ms

Audio #3
ID : 3
Format : AC-3
Format/Info : Audio Coding 3
Codec ID : 2000
Duration : 2h 15mn
Bit rate mode : Constant
Bit rate : 192 Kbps
Channel(s) : 2 channels
Channel positions : L R
Sampling rate : 48.0 KHz
Stream size : 187 MiB (8%)
Alignment : Split accross interleaves
Interleave, duration : 42 ms (1.00 video frame)
Interleave, preload duration : 500 ms

pb.wtf



Скачать Остров через торрент https://pic.kartinco.top/images/1/hmyb9i1yxh.png Скачать фильм Остров через торрент бесплантно в хорошем качестве Описание: Линкольн Шесть-Эхо — житель на вид утопического, но охраняемого поселения середины XXI века. Как и все обитатели этого тщательно ... 9.5 10 2
Info! Золотая раздача, скачанное не засчитывается.
Торрент: Зарегистрирован [2012-08-21 15:02] · скачан: 392 раз
Статус: √ проверено
Размер: 2.18 GB
Как cкачать? Как скачать Остров через торрент | UTorrent

% Раздел Тема Автор DL S | L
Фильмы (HD 720p, 1080p) (48-60 fps) [ 4.91 GB ] Остров / The Island [2005 BDRip - HEVC 1080p 10 bit 60 FPS] dd2d3 Скачать
1 | 0
T Релизы по Парсеру [Игры, Сериалы и Фильмы и другое...] [ 2.18 GB ] Остров / The Island [2005 BDRip] Dub sanekbest1 Скачать
1 | 0
Фильмы [HD 720p, 1080p] (Хороший звук DUB, MVO) [ 8.8 GB ] Остров / The Island [2005 BDRip 720p by msltel] 2 x DUB DVO 3 x AVO msltel Скачать
1 | 0
Фильмы [HD 720p, 1080p] (Хороший звук DUB, MVO) [ 24.42 GB ] Остров / The Island [2005 BDRip 1080p by msltel] 2 x DUB DVO 3 x AVO msltel Скачать
2 | 0
Фильмы [HD 720p, 1080p] (Хороший звук DUB, MVO) [ 25.35 GB ] Остров / The Island [2005 BDRip 1080р ] Smart-1000 Скачать
1 | 0
Фильмы с авторской озвучкой [ 1.46 GB ] Остров / The Island [2005 BDRip] [AVO] killermax2013 Скачать
1 | 0
Фильмы 2001-2005 [ 3.76 GB ] Остров / The Island [2005 BDRip] -=BIGBOSS=- Скачать
1 | 0

28-11-2019 20:33  

Отключить всю рекламу на сайте

    Дорогой пользователь! Огромная просьба, поблагодарите релизера, оцените раздачу и оставьте свои комментарий, если Вы скачали Остров через торрент бесплатно! Внесите свою лепту в развитие PiratBit!
    Комментировать посты могут только пользователи прошедшие не сложную регистрацию
    Показать сообщения:    

    Остров через торрент
    Скачать бесплатно Остров
    Остров скачать торрент
    Остров смотреть онлайн
    Cкачать фильм Остров бесплатно
    Остров скачать торрент в хорошем качестве
    Остров смотреть онлайн бесплатно в хорошем качестве


    Вы не можете начинать темы
    Вы не можете отвечать на сообщения
    Вы не можете редактировать свои сообщения
    Вы не можете удалять свои сообщения
    Вы не можете голосовать в опросах
    Вы не можете прикреплять файлы к сообщениям
    Вы можете скачивать файлы