новый адрес пиратбит piratbit
Мега распродажа FORZA HORIZON 4 ULTIMATE+ВСЕ DLC+ОНЛАЙН всего за 499р. 349 руб. (супер цена). Внимание количество ограничено!!!

iTunes

1+1

iTunes

мы

iTunes

1

iTunes

Чернобыль

iTunes

Ральф против интернета

Лицензия

ПШазам

Лицензия

Игра престолов

Лицензия

30
pack

ВАЖНО

!!Акция!!

Alien_RageХит недели

RePack

Resident Evil 21

ИГРА 18+

pack

RePack

Metro:Exodus

!!Акция!!

Alien_Rage

RePack

fifa19

RePack

Assassins Creed: Odyssey

RePack

NEED FOR SPEED™ PAYBACK

3 сезон

9 сезон

Бесстыжие 9 сезон

Все сериалы

все сериалы на PB.wtf

RePack

FAR CRY 5
Ребята, катастрофически не хватает 1900р. для оплаты серверов за Октябрь (всвязи с блокировками трафик упал в 3 раза), 1-2р., выручайте.
  

Зеленая миля / The Green Mile / 1999 / BDRip (Фрэнк Дарабонт) (детектив, криминал, фэнтези, драма, Rus. DUB + Ukr. Mногоголосый ) pb.wtf

Зеленая миля через торрент pb.wtf

Размер: 2.9 GB | Добавлен: 7 лет 2 мес. назад | Торрент скачан:364 раза
Скачать  

21-08-2012 15:24 Зеленая миля Скачать торрент  

Зеленая миля / The Green Mile
«Walk a mile you'll never forget.»
Год выпуска: 1999
Страна: США
Жанр: детектив, криминал, фэнтези, драма
Продолжительность: 03:08:37
Перевод: Rus. Дубляж + Ukr. Mногоголосый

Режиссер: Фрэнк Дарабонт
Продюссер: Фрэнк Дарабонт, Дэвид Валдес
Сценарий: Фрэнк Дарабонт, Стивен Кинг

Бюджет: $60 000 000
Премьера в мире: 6 декабря 1999



В ролях: Том Хэнкс, Дэвид Морс, Бонни Хант, Майкл Кларк Дункан, Джеймс Кромуэлл, Майкл Джитер, Грэм Грин, Даг Хатчисон, Сэм Рокуэлл, Бэрри Пеппер

Описание: Бывший надзиратель в федеральной тюрьме штата Луизиана «Холодная гора» Пол Эджкомб рассказывает свою историю. В 1932 году Пол работал в тюремном блоке «Е» (блоке для смертников) старшим надзирателем. Блок прозвали «Зелёная миля» по аналогии с «Последней милей», которую проходит приговорённый в последний раз. А зелёная — потому что полы в блоке были застелены светло-зелёным линолеумом.
Вместе с Полом работают надзиратели Гарри Тервиллигер, Брут Хоуэлл, Дин Стэнтон, Перси Уэтмор. Все они хорошие, добрые люди как и сам Пол. Кроме Перси, который злобный, трусливый и жестокий человек. Перси всё время издевается над заключёнными и уже всем изрядно надоел, но он чувствует себя в полной безопасности: у него большие связи - он племянник жены губернатора штата. Особенно подвергается нападкам Перси заключённый Эдуард Делакруа.

Доп. информация: «Зелёная миля» (1996) — роман Стивена Кинга о блоке для приговорённых к казни на электрическом стуле в тюрьме «Холодная гора».

Качество: BDRip
Формат: AVI
Видео кодек: XviD
Аудио кодек: AC3
Видео: XviD, 720x400, 1417 kbps, 0.205 bit/pixel
Аудио#1: 48 kHz, AC3 5/1. 6 ch, 384.00 kbps / Русский дубляж
Аудио#2: 48 kHz, AC3 5/1. 6 ch, 384.00 kbps / Украинский многоголосый

General
Complete name : G:\Рип\The Green Mile.1999.HQBDRip-PT.avi
Format : AVI
Format/Info : Audio Video Interleave
Format profile : OpenDML
File size : 2.90 GiB
Duration : 3h 8mn
Overall bit rate : 2 200 Kbps
Movie name : Зеленая миля / The Green Mile (1999) BDRip [RUS, UKR]
Director : Rulya74 [720p]
Writing application : VirtualDubModRus 1.5.10.2 (build 2542/release)
Writing library : VirtualDubMod build 2542/release
Copyright : www.PowerTracker.org

Video
ID : 0
Format : MPEG-4 Visual
Format profile : Advanced Simple@L5
Format settings, BVOP : Yes
Format settings, QPel : No
Format settings, GMC : No warppoints
Format settings, Matrix : Default (MPEG)
Codec ID : XVID
Codec ID/Hint : XviD
Duration : 3h 8mn
Bit rate : 1 417 Kbps
Width : 720 pixels
Height : 400 pixels
Display aspect ratio : 16:9
Frame rate : 23.976 fps
Resolution : 8 bits
Colorimetry : 4:2:0
Scan type : Progressive
Bits/(Pixel*Frame) : 0.205
Stream size : 1.87 GiB (64%)
Writing library : XviD 64

Audio #1
ID : 1
Format : AC-3
Format/Info : Audio Coding 3
Codec ID : 2000
Duration : 3h 8mn
Bit rate mode : Constant
Bit rate : 384 Kbps
Channel(s) : 6 channels
Channel positions : Front: L C R, Surround: L R, LFE
Sampling rate : 48.0 KHz
Stream size : 518 MiB (17%)
Alignment : Split accross interleaves
Interleave, duration : 42 ms (1.00 video frame)
Interleave, preload duration : 500 ms

Audio #2
ID : 2
Format : AC-3
Format/Info : Audio Coding 3
Codec ID : 2000
Duration : 3h 8mn
Bit rate mode : Constant
Bit rate : 384 Kbps
Channel(s) : 6 channels
Channel positions : Front: L C R, Surround: L R, LFE
Sampling rate : 48.0 KHz
Stream size : 518 MiB (17%)
Alignment : Split accross interleaves
Interleave, duration : 42 ms (1.00 video frame)
Interleave, preload duration : 500 ms

pb.wtf



Скачать Зеленая миля через торрент http://pic.kartinco.top/images/1/rjriik5olt.png Скачать фильм Зеленая миля через торрент бесплантно в хорошем качестве Описание: Бывший надзиратель в федеральной тюрьме штата Луизиана «Холодная гора» Пол Эджкомб рассказывает свою историю. В 1932 году Пол ... 9.3 10 9
Info! Золотая раздача, скачанное не засчитывается.
Торрент: Зарегистрирован [2012-08-21 15:24] · скачан: 364 раз
Статус: √ проверено
Размер: 2.9 GB
Как cкачать? Как скачать Зеленая миля через торрент | qTorrent

% Раздел Тема Автор DL S | L
Фильмы до 2000 г. [ 3.66 GB ] Зелёная миля / The Green Mile [1999 BDRip] DUB [Мосфильм-Мастер] + MVO+ [Original] anton210896 Скачать
1 | 0
Фильмы до 2000 г. [ 2.9 GB ] Зеленая миля / Green Mile The [1999 ... BDRip] Anonymous Скачать
1 | 0
Фильмы до 2000 г. [ 1.45 GB ] Зелёная миля / The Green Mile [1999 BDRip-AVC] Dub dexter lex Скачать
2 | 0
Фильмы [HD 720p, 1080p] (Хороший звук DUB, MVO) [ 18.57 GB ] Зелёная миля / The Green Mile [1999 BDRip 1080p] diletant Скачать
1 | 0
Фильмы [HD 720p, 1080p] (Хороший звук DUB, MVO) [ 8.04 GB ] Зелёная миля / The Green Mile [1999 BDRip 720p] smaster Скачать
1 | 0


>> Регистрируемся здесь <<






Отзывы и комментарии о схеме читаем и пишем здесь: ---> Отзывы и комментарии о схеме

Новые благодарочки в телеграм довольных пользователей:
скриншот   скриншот   скриншот   скриншот   скриншот

21-08-2012 16:26 Зеленая миля Скачать торрент  

дайте скоростьpb.wtf



21-08-2012 16:52 Зеленая миля Скачать торрент  

фильм классный раздоющему спасибо большоеpb.wtf



21-08-2012 18:05 Зеленая миля Скачать торрент  

андрей19 Да фильм ХОРОШ!!!pb.wtf



27-01-2013 13:19 Зеленая миля Скачать торрент  

Это класика!!!! Том Хэнкс бесподобен! Фильм смотриться на одном дыхании.
pb.wtf



01-04-2013 19:12 Зеленая миля Скачать торрент  

Фильм - Шедевр!Даже заплакал в концеpb.wtf



    Дорогой пользователь! Огромная просьба, поблагодарите релизера, оцените раздачу и оставьте свои комментарий, если Вы скачали Зеленая миля через торрент бесплатно! Внесите свою лепту в развитие PiratBit!
    Комментировать посты могут только пользователи прошедшие не сложную регистрацию
    Показать сообщения:    

    Зеленая миля через торрент
    Скачать бесплатно Зеленая миля
    Зеленая миля скачать торрент
    Зеленая миля смотреть онлайн
    Cкачать фильм Зеленая миля бесплатно
    Зеленая миля скачать торрент в хорошем качестве
    Зеленая миля смотреть онлайн бесплатно в хорошем качестве


    Вы не можете начинать темы
    Вы не можете отвечать на сообщения
    Вы не можете редактировать свои сообщения
    Вы не можете удалять свои сообщения
    Вы не можете голосовать в опросах
    Вы не можете прикреплять файлы к сообщениям
    Вы можете скачивать файлы