2 сезон

iTunes

MVO

1

2 сезон

iTunes

iTunes

1 сезон

RePack

30

Новинка

ВАЖНО

ИГРА 18+

pack

RePack

MK11
pack

Легкие деньги

RePack

jed

RePack

fifa19

RePack

RDR2

RePack

NEED FOR SPEED™ PAYBACK

4 сезон

9 сезон

Бесстыжие 9 сезон

Все сериалы

все сериалы на PB.wtf

RePack

FAR CRY 5

Anonymous, добрый вечер, мы не успеваем собрать деньги на оплату серверов за декабрь и январь, помогите нам пожалуйста в это трудное время. В качестве благодарности мы отключим Вам всю рекламу на сайте (укажите свой ник в строку Ваше имя)!

×
  
Magnet ссылка

Кайдзи: Жить или проиграть / Kaiji: Jinsei gyakuten gêmu / Kaiji: The Ultimate Gambler (Тоя Сато) [2009 г., драма, BDRip-AVC, DVO + Оригинал / Sub-Rus] pb.wtf

Кайдзи: Жить или проиграть через торрент pb.wtf

Размер: 2.78 GB | Добавлен: 8 лет 5 мес. назад | Торрент скачан:43 раза
Скачать  

22-08-2012 05:59 Кайдзи: Жить или проиграть Скачать торрент  

Кайдзи: Жить или проиграть / Kaiji: Jinsei gyakuten gêmu / Kaiji: The Ultimate Gambler

Год выпуска: 2009
Страна: Япония
Жанр: драма
Продолжительность: 02:10:07
Перевод: Любительский двухголосый + Оригинал

Режиссер: Тоя Сато
Сценарий: Нобуюки Фукумото, Мика Омори

Премьера в мире: 10 октября 2009



В ролях: Матсудрамаяма Кеничи, Татсуя Фудживара, Юрико Ёшитака, Теруюки Кагава, Таро Ямамото, Юки Амами, Кэй Сато, Сотаро Ясуда, Кен Митсуйши, Сузуки Матсуо

Описание: Ито Кайджи безработный, бездельник, ворующий эмблемы дорогих машин и протыкающий шины. Но однообразная рутина меняется, когда к нему в дверь стучит человек в дорогом костюме. Гость представляется как некий Эндо, сборщик долгов. Причина его визита проста — Кайджи должен деньги, выступив заверенным лицом своего коллеги, Фурухаты Такеши, который на одной из работ изначально должен был 300000 йен, но прошло время и долг возрос до астрономической величины в 3850000 йен, так как сам плательщик пропал, вся тяжесть долга падает на Кайджи.
Но Эндо предлагает ему выход из данной ситуации: сесть на борт одного таинственного корабля, на котором такие же должники как он будут играть в азартные игры, на деньги взятые взаймы у учредителей. Это единственный шанс отчаявшихся людей вырваться из цепких лап нищеты или же это билет в один конец?!

Качество: BDRip-AVC
Формат: MKV
Видео кодек: H.264
Аудио кодек: AC3
Видео: H.264, 720x304, 1912 kbps, 23.976 fps
Аудио#1: 48 kHz, AC3 5/1. 6 ch, 448.00 kbps
Аудио#2: 48 kHz, AC3 5/1. 6 ch, 640.00 kbps
Субтитры : вшитые отключаемые, SRT, Русский
General
Complete name : G:\Торрент фильмы\Kaiji.mkv
Format : Matroska
File size : 2.78 GiB
Duration : 2h 10mn
Overall bit rate : 3 061 Kbps
Encoded date : UTC 2010-12-08 21:33:01
Writing application : mkvmerge v4.3.0 ('Escape from the Island') сборка от Sep 8 2010 20:18:43
Writing library : libebml v1.0.0 + libmatroska v1.0.0

Video
ID : 1
Format : AVC
Format/Info : Advanced Video Codec
Format profile : High@L3.1
Format settings, CABAC : Yes
Format settings, ReFrames : 12 frames
Muxing mode : Container profile=Unknown@3.1
Codec ID : V_MPEG4/ISO/AVC
Duration : 2h 9mn
Bit rate : 1 912 Kbps
Nominal bit rate : 1 972 Kbps
Width : 720 pixels
Height : 304 pixels
Display aspect ratio : 2.35:1
Frame rate : 23.976 fps
Resolution : 8 bits
Colorimetry : 4:2:0
Scan type : Progressive
Bits/(Pixel*Frame) : 0.364
Stream size : 1.74 GiB (62%)
Writing library : x264 core 105 r1724 b02df7b
Encoding settings : cabac=1 / ref=12 / deblock=1:-2:-1 / analyse=0x3:0x133 / me=umh / subme=10 / psy=1 / psy_rd=1.00:0.10 / mixed_ref=1 / me_range=32 / chroma_me=1 / trellis=2 / 8x8dct=1 / cqm=0 / deadzone=21,11 / fast_pskip=0 / chroma_qp_offset=-3 / threads=3 / sliced_threads=0 / nr=0 / decimate=0 / interlaced=0 / constrained_intra=0 / bframes=12 / b_pyramid=2 / b_adapt=2 / b_bias=0 / direct=3 / weightb=1 / open_gop=0 / weightp=2 / keyint=250 / keyint_min=23 / scenecut=40 / intra_refresh=0 / rc=2pass / mbtree=0 / bitrate=1972 / ratetol=1.0 / qcomp=0.65 / qpmin=10 / qpmax=51 / qpstep=4 / cplxblur=20.0 / qblur=0.5 / ip_ratio=1.40 / pb_ratio=1.30 / aq=1:1.00
Matrix coefficients : BT.709-5, BT.1361, IEC 61966-2-4 709, SMPTE RP177

Audio #1
ID : 2
Format : AC-3
Format/Info : Audio Coding 3
Codec ID : A_AC3
Duration : 2h 10mn
Bit rate mode : Constant
Bit rate : 448 Kbps
Channel(s) : 6 channels
Channel positions : Front: L C R, Surround: L R, LFE
Sampling rate : 48.0 KHz
Stream size : 417 MiB (15%)
Title : RU ac3 6ch 448kbps
Language : Russian

Audio #2
ID : 3
Format : AC-3
Format/Info : Audio Coding 3
Codec ID : A_AC3
Duration : 2h 10mn
Bit rate mode : Constant
Bit rate : 640 Kbps
Channel(s) : 6 channels
Channel positions : Front: L C R, Surround: L R, LFE
Sampling rate : 48.0 KHz
Stream size : 596 MiB (21%)
Title : JP ac3 6ch 640kbps
Language : Japanese

Text
ID : 4
Format : UTF-8
Codec ID : S_TEXT/UTF8
Codec ID/Info : UTF-8 Plain Text
Language : Russian
pb.wtf



Скачать Кайдзи: Жить или проиграть через торрент https://pic.kartinco.top/images/1/xpv55ksm7e.jpg Скачать фильм Кайдзи: Жить или проиграть через торрент бесплантно в хорошем качестве Описание: Ито Кайджи безработный, бездельник, ворующий эмблемы дорогих машин и протыкающий шины. Но однообразная рутина меняется, когда к ... 10 10 2
Info! Золотая раздача, скачанное не засчитывается.
Торрент: Зарегистрирован [2012-08-22 05:59] · скачан: 43 раз
Статус: T временная
Размер: 2.78 GB
Как cкачать? Как скачать Кайдзи: Жить или проиграть через торрент | UTorrent



Последний раз редактировалось: maygli (2012-08-22 07:55), всего редактировалось 3 раз(а)

28-11-2019 20:33  

Отключить всю рекламу на сайте

22-08-2012 07:18 Кайдзи: Жить или проиграть Скачать торрент  

maygli
MediaInfo добавьте пожалуйста.pb.wtf



22-08-2012 07:28 Кайдзи: Жить или проиграть Скачать торрент  

подкоректировалpb.wtf



22-08-2012 08:09 Кайдзи: Жить или проиграть Скачать торрент  

maygli писал(а):

Audio #2
ID : 3
Format : AC-3
Format/Info : Audio Coding 3
Codec ID : A_AC3
Duration : 2h 10mn
Bit rate mode : Constant
Bit rate : 640 Kbps
Channel(s) : 6 channels
Channel positions : Front: L C R, Surround: L R, LFE
Sampling rate : 48.0 KHz
Stream size : 596 MiB (21%)
Title : JP ac3 6ch 640kbps
Language : Japanese

Указываем наличие 2 аудио дорожки и названия темы подкорректируйте.pb.wtf



    Дорогой пользователь! Огромная просьба, поблагодарите релизера, оцените раздачу и оставьте свои комментарий, если Вы скачали Кайдзи: Жить или проиграть через торрент бесплатно! Внесите свою лепту в развитие PiratBit!
    Комментировать посты могут только пользователи прошедшие не сложную регистрацию
    Показать сообщения:    

    Кайдзи: Жить или проиграть через торрент
    Скачать бесплатно Кайдзи: Жить или проиграть
    Кайдзи: Жить или проиграть скачать торрент
    Кайдзи: Жить или проиграть смотреть онлайн
    Cкачать фильм Кайдзи: Жить или проиграть бесплатно
    Кайдзи: Жить или проиграть скачать торрент в хорошем качестве
    Кайдзи: Жить или проиграть смотреть онлайн бесплатно в хорошем качестве


    Вы не можете начинать темы
    Вы не можете отвечать на сообщения
    Вы не можете редактировать свои сообщения
    Вы не можете удалять свои сообщения
    Вы не можете голосовать в опросах
    Вы не можете прикреплять файлы к сообщениям
    Вы можете скачивать файлы