1 сезон

1 сезон

iTunes

1

КиноПоиск HD

Кинопоиск HD

iTunes

13

1 сезон

RePack

30

Ultimate

ВАЖНО

ИГРА 18+

pack

RePack

MK11
pack

Легкие деньги

RePack

jed

RePack

fifa19

RePack

RDR2

RePack

NEED FOR SPEED™ PAYBACK

4 сезон

9 сезон

Бесстыжие 9 сезон

Все сериалы

все сериалы на PB.wtf

RePack

FAR CRY 5
  
Magnet ссылка

Последний палач / The Last Hangman (Адриан Шерголд) [2005 г., драма, DVDRip, MVO] pb.wtf

Последний палач через торрент pb.wtf

Размер: 1.56 GB | Добавлен: 8 лет 7 мес. назад | Торрент скачан:71 раз
Скачать  

22-08-2012 06:35 Последний палач Скачать торрент  

Последний палач / The Last Hangman
«Respected citizen. Loving husband. Professional killer.»
Год выпуска: 2005
Страна: Великобритания
Жанр: драма
Продолжительность: 01:31:15
Перевод: Профессиональный многоголосый

Режиссер: Адриан Шерголд
Продюссер: Кристин Ланган, Ребекка Итон, Энди Харрис
Сценарий: Боб Миллс, Джефф Поуп

Премьера в мире: 12 сентября 2005



В ролях: Тимоти Сполл, Эдди Марсан, Джеймс Корден, Джульет Стивенсон, Бен МакКэй, Майкл Нортон, Лиззи Хопли, Кэван Клеркин, Кристофер Фалфорд, Иэн Шоу, Мэгги Оллереншоу, Клер Килейн, Клайв Френсис, Шейла Шехович, Кейран Флинн, Тобиас Мензиес, Мэри Стокли, Джойлия Фитч, Бернард Кей

Описание: Реальная история жизни Альберта Пьеррпойнта, знаменитого британского палача, пошедшего по стопам своего отца и дяди и ставшего самым печально известным в этой профессии. Казнь — грязная работа, но кто-то же должен ее выполнять?!
После работы Пьеррпойнт переодевается и становится ничем не примечательным обывателем, спешащим домой к жене или в паб. Единственное, чего он желает, так это достигнуть в своем деле совершенства… Что происходит в душе у человека, чья работа убивать людей? Удивительно, но Альберт Пьррпойнт мечтал о такой судьбе…

Доп. информация: Альберт Пьеррпойнт (Albert Pierrepoint)- государственный палач Великобритании, повесивший 608 осужденных.

Качество: DVDRip
Формат: AVI
Видео кодек: DivX
Аудио кодек: AC3
Видео: DivX 5.2.1, 720x400, 1994 kbps, 0.277 bit/pixel, 25.000 fps
Аудио#1: 48 kHz, AC3 5/1. 6 ch, 448.00 kbps
General
Complete name : G:\Торрент фильмы\Последний палач.avi
Format : AVI
Format/Info : Audio Video Interleave
File size : 1.56 GiB
Duration : 1h 31mn
Overall bit rate : 2 452 Kbps
Writing application : VirtualDubMod 1.5.10.2 (build 2540/release)
Writing library : VirtualDubMod build 2540/release

Video
ID : 0
Format : MPEG-4 Visual
Format settings, BVOP : Yes
Format settings, QPel : No
Format settings, GMC : No warppoints
Format settings, Matrix : Default (H.263)
Muxing mode : Packed bitstream
Codec ID : DX50
Codec ID/Hint : DivX 5
Duration : 1h 31mn
Bit rate : 1 994 Kbps
Width : 720 pixels
Height : 400 pixels
Display aspect ratio : 16:9
Frame rate : 25.000 fps
Resolution : 8 bits
Colorimetry : 4:2:0
Scan type : Progressive
Bits/(Pixel*Frame) : 0.277
Stream size : 1.27 GiB (81%)
Writing library : DivX 5.2.1 (WaffleDay) (UTC 2004-09-08)

Audio
ID : 1
Format : AC-3
Format/Info : Audio Coding 3
Codec ID : 2000
Duration : 1h 31mn
Bit rate mode : Constant
Bit rate : 448 Kbps
Channel(s) : 6 channels
Channel positions : Front: L C R, Surround: L R, LFE
Sampling rate : 48.0 KHz
Stream size : 292 MiB (18%)
Alignment : Split accross interleaves
Interleave, duration : 40 ms (1.00 video frame)
Interleave, preload duration : 500 ms

pb.wtf



Скачать Последний палач через торрент https://pic.kartinco.top/images/1/mb4yx18stw.jpg Скачать фильм Последний палач через торрент бесплантно в хорошем качестве Описание: Реальная история жизни Альберта Пьеррпойнта, знаменитого британского палача, пошедшего по стопам своего отца и дяди и ставшего ... 10 10 2
Info! Золотая раздача, скачанное не засчитывается.
Торрент: Зарегистрирован [2012-08-22 06:35] · скачан: 71 раз
Статус: √ проверено
Размер: 1.56 GB
Как cкачать? Как скачать Последний палач через торрент | UTorrent

% Раздел Тема Автор DL S | L
Фильмы 2001-2005 [ 1.56 GB ] Последний палач / Last Hangman The [2005 DVDRip] шурка Скачать
1 | 0

28-11-2019 20:33  

Отключить всю рекламу на сайте

22-08-2012 10:07 Последний палач Скачать торрент  

Куда оценка делась? Спасибо! Хоть бы написали скачавшие как фильм!!!pb.wtf



    Дорогой пользователь! Огромная просьба, поблагодарите релизера, оцените раздачу и оставьте свои комментарий, если Вы скачали Последний палач через торрент бесплатно! Внесите свою лепту в развитие PiratBit!
    Комментировать посты могут только пользователи прошедшие не сложную регистрацию
    Показать сообщения:    

    Последний палач через торрент
    Скачать бесплатно Последний палач
    Последний палач скачать торрент
    Последний палач смотреть онлайн
    Cкачать фильм Последний палач бесплатно
    Последний палач скачать торрент в хорошем качестве
    Последний палач смотреть онлайн бесплатно в хорошем качестве


    Вы не можете начинать темы
    Вы не можете отвечать на сообщения
    Вы не можете редактировать свои сообщения
    Вы не можете удалять свои сообщения
    Вы не можете голосовать в опросах
    Вы не можете прикреплять файлы к сообщениям
    Вы можете скачивать файлы