Мега распродажа FORZA HORIZON 4 ULTIMATE+ВСЕ DLC+ОНЛАЙН всего за 499р. 349 руб. (супер цена). Внимание количество ограничено!!!

iTunes

1+1

iTunes

мы

iTunes

1

1 сезон

Чернобыль

1 сезон

Ральф против интернета

Лицензия

ПШазам

8 сезон

Игра престолов

Лицензия

30
pack

ВАЖНО

!!Акция!!

Alien_RageХит недели

RePack

Resident Evil 21

ИГРА 18+

pack

RePack

Metro:Exodus

!!Акция!!

Alien_Rage

RePack

fifa19

RePack

Assassins Creed: Odyssey

RePack

NEED FOR SPEED™ PAYBACK

3 сезон

9 сезон

Бесстыжие 9 сезон

Все сериалы

все сериалы на PB.wtf

RePack

FAR CRY 5
Ребята, катастрофически не хватает 2730р. для оплаты серверов за ИЮНЬ (всвязи с блокировками трафик упал в 3 раза), 1-2р., выручайте.
  

Однажды в Чернобыле / The Fifth Element (Люк Бессон) [1997 г., Пародия, Комедия, Фантастика, DVDRip, DVO (студия "Ахтунг")] pb.wtf

Однажды в Чернобыле через торрент pb.wtf

Размер: 701 MB | Добавлен: 6 лет 10 мес. назад | Торрент скачан:122 раза
Скачать  

22-08-2012 07:36 Однажды в Чернобыле Скачать торрент  

Однажды в Чернобыле / The Fifth Element

Год выпуска: 1997
Страна: Франция / Gaumont
Жанр: Пародия, Комедия, Фантастика
Продолжительность: 01:59:13
Перевод: Любительский двухголосый [смешной перевод студии "Ахтунг" 2002 год]

Режиссер: Люк Бессон
Продюссер: Патрис Леду, Джон А. Амикарелла, Айэйн Смит
Сценарий: Люк Бессон, Роберт Марк Кэмен

Бюджет: $90 000 000
Премьера в мире: 7 мая 1997

Рейтинг PG-13 - детям до 13 лет просмотр не желателен

Мировой рейтинг IMDB 7.60 (192 790)



В ролях: Брюс Уиллис, Милла Йовович, Гари Олдман, Иэн Холм, Крис Такер, Люк Перри, Брайон Джеймс, Том ’Тайни’ Листер мл., Ли Эванс, Чарли Крид-Майлз

Описание: Однажды в Чернобыле – это юмористический перевод фильма "Пятый элемент". Озвучка и, соответственно, сюжет фильма полностью изменены. Рыжая девушка с русским именем Валя, сваливается на обкуренного таксиста Штакета. Им предстоит защитить землю от огненной массы, движущейся в сторону Земли. Они отправляются в Чернобыль, чтобы отыскать 4 камня, активизирующих инопланетное оружие.

Качество: DVDRip
Формат: AVI
Видео кодек: DivX
Аудио кодек: MP3
Видео: 640х272 (2.35:1), 25 fps, 684 kbps avg, 0.157 bit/pixel
Аудио: 48 kHz, 2 ch, 128.00 kbps

Внимание! Присутствует не нормативная лексика!





Формат : AVI
Формат/Информация : Audio Video Interleave
Размер файла : 701 Мбайт
Продолжительность : 1 ч. 59 м.
Общий поток : 822 Кбит/сек
Программа кодирования : VirtualDubMod 1.5.10.1 (build 2369/release)
Библиотека кодирования : VirtualDubMod build 2369/release

Видео
Идентификатор : 0
Формат : MPEG-4 Visual
Профиль формата : Simple@L3
Параметр BVOP формата : 2
Параметр QPel формата : Нет
Параметр GMC формата : Без точки перехода
Параметр матрицы формата : Default (H.263)
Идентификатор кодека : DX50
Идентификатор кодека/Подсказка : DivX 5
Продолжительность : 1 ч. 59 м.
Битрейт : 684 Кбит/сек
Ширина : 640 пикселей
Высота : 272 пикселя
Соотношение сторон : 2,35:1
Частота кадров : 25,000 кадров/сек
Цветовое пространство : YUV
Субдискретизация насыщенности : 4:2:0
Битовая глубина : 8 бит
Тип развёртки : Прогрессивная
Метод сжатия : С потерями
Бит/(Пиксели*Кадры) : 0.157
Размер потока : 583 Мбайт (83%)
Библиотека кодирования : XviD 1.0.0 RC2 (Jambo) (UTC 2004-02-01)

Аудио
Идентификатор : 1
Формат : MPEG Audio
Версия формата : Version 1
Профиль формата : Layer 3
Режим : Joint stereo
Идентификатор кодека : 55
Идентификатор кодека/Подсказка : MP3
Продолжительность : 1 ч. 59 м.
Вид битрейта : Постоянный
Битрейт : 128 Кбит/сек
Каналы : 2 канала
Частота : 48,0 КГц
Метод сжатия : С потерями
Размер потока : 109 Мбайт (16%)
Выравнивание : Соединение по промежуткам
Продолжительность промежутка : 40 мс. (1,00 видеокадр)
Время предзагрузки промежутка : 504 мс.

pb.wtf



Скачать Однажды в Чернобыле через торрент http://i40.fastpic.ru/big/2012/0822/ed/e9d21c61b306a5f36bc304d071b08eed.jpg Скачать фильм Однажды в Чернобыле через торрент бесплантно в хорошем качестве Описание: Однажды в Чернобыле – это юмористический перевод фильма "Пятый элемент". Озвучка и, соответственно, сюжет фильма полностью ... 5 10 1
Info! Золотая раздача, скачанное не засчитывается.
Торрент: Зарегистрирован [2012-08-22 07:36] · скачан: 122 раз
Статус: √ проверено
Размер: 701 MB
Как cкачать? Как скачать Однажды в Чернобыле через торрент | qTorrent


>> Регистрируемся здесь <<






Отзывы и комментарии о схеме читаем и пишем здесь: ---> Отзывы и комментарии о схеме

Новые благодарочки в телеграм довольных пользователей:
скриншот   скриншот   скриншот   скриншот   скриншот

22-08-2012 10:49 Однажды в Чернобыле Скачать торрент  

Хрень кака-тоpb.wtf



22-08-2012 11:30 Однажды в Чернобыле Скачать торрент  

МАРАЗМ !!!!!!pb.wtf



22-08-2012 16:47 Однажды в Чернобыле Скачать торрент  

pb.wtf



23-08-2012 21:16 Однажды в Чернобыле Скачать торрент  

Evgenii911
ты чего-то хотел сказать? pb.wtf



    Дорогой пользователь! Огромная просьба, поблагодарите релизера, оцените раздачу и оставьте свои комментарий, если Вы скачали Однажды в Чернобыле через торрент бесплатно! Внесите свою лепту в развитие PiratBit!
    Комментировать посты могут только пользователи прошедшие не сложную регистрацию
    Показать сообщения:    

    Однажды в Чернобыле через торрент
    Скачать бесплатно Однажды в Чернобыле
    Однажды в Чернобыле скачать торрент
    Однажды в Чернобыле смотреть онлайн
    Cкачать фильм Однажды в Чернобыле бесплатно
    Однажды в Чернобыле скачать торрент в хорошем качестве
    Однажды в Чернобыле смотреть онлайн бесплатно в хорошем качестве


    Вы не можете начинать темы
    Вы не можете отвечать на сообщения
    Вы не можете редактировать свои сообщения
    Вы не можете удалять свои сообщения
    Вы не можете голосовать в опросах
    Вы не можете прикреплять файлы к сообщениям
    Вы можете скачивать файлы