2 сезон

iTunes

MVO

1

2 сезон

iTunes

iTunes

1 сезон

RePack

30

Ultimate

ВАЖНО

ИГРА 18+

pack

RePack

MK11
pack

Легкие деньги

RePack

jed

RePack

fifa19

RePack

RDR2

RePack

NEED FOR SPEED™ PAYBACK

4 сезон

9 сезон

Бесстыжие 9 сезон

Все сериалы

все сериалы на PB.wtf

RePack

FAR CRY 5

Anonymous, добрый вечер, мы не успеваем собрать деньги на оплату серверов за декабрь и январь, помогите нам пожалуйста в это трудное время. В качестве благодарности мы отключим Вам всю рекламу на сайте (укажите свой ник в строку Ваше имя)!

×
  
Magnet ссылка

Харакири 3D / Ichimei / Hara-Kiri: Death of a Samurai (Такаси Миике / Takasi Myike) [2011, драма, DVD5] R5 [Anaglyph / Анаглиф] pb.wtf

Харакири 3D через торрент pb.wtf

Размер: 4.36 GB | Добавлен: 8 лет 4 мес. назад | Торрент скачан:45 раз
Скачать  

22-08-2012 08:57 Харакири 3D Скачать торрент  


Харакири 3D / Ichimei / Hara-Kiri: Death of a Samurai
Страна: Япония, Великобритания
Студия: Amuse Soft Entertainment K.K., Dentsu, Kodansha Ltd., OLM, Recorded Picture Company (RPC), Sedic International, Shochiku Company, The Asahi Shimbun Newspaper, Yahoo Japan, Yamanashi Broadcasting System, Yamanashi Nichinichi Shimbun
Жанр: драма
Год выпуска: 2011
Мировая премьера: 19 мая 2011
Российская премьера: 28 июня 2012, 3D
Дата выхода DVD: 23 августа 2012
Дата выхода Blu-Ray: 23 августа 2012
Продолжительность: 02:02:32
Перевод: Профессиональный (многоголосый закадровый) [Лицензия]
Cубтитры: русские
Оригинальная аудиодорожка: японский
Режиссер: Такаси Миике / Takasi Myike
В ролях: Кодзи Якусё, Наото Такэнака Хикари Мицушима Эйта, Шиносуке Ичикава, Казуки Намиока Хирофуми Арай Мунэтака Аоки Аюму Саито, Такаси Сасано
Описание: Желая достойно умереть, обедневший самурай Хаширо просит позволения совершить ритуальное самоубийство в родовой резиденции клана Ли. Старый воин Кагею, интендант поместья, пытается отговорить его и рассказывает трагическую историю о молодом ронине Мотоме, обратившемся недавно в резиденцию с той же просьбой. Ужасные подробности смерти Мотома шокируют Хаширо, но он остается тверд в своем решении и просит лишь об одном: чтобы при совершении харакири с ним были три самурая Кагею. Однако по странному совпадению все трое самураев исчезают…
Бонусы: Создатели и исполнители, анонсы, фотогаллерея

Релиз группы:
Качество: DVD5 R5
Формат: DVD-Video
Видео кодек: MPEG2
Аудио кодек: AC3
Видео: PAL 16:9 (720x576(0.342)) MPEG Video, 25,000 кадр/сек, 3548 Кбит/сек
Аудио #1: Russian (Dolby AC3, 6 ch) 384 Кбит/сек, 48,0 КГц
Аудио #2: Japanese (Dolby AC3, 6 ch) 448 Кбит/сек, 48,0 КГц



Title: Harakiri.3D.2011.DVD5
Size: 4.36 Gb ( 4 570 986,00 KBytes ) - DVD-5
Enabled regions: 1, 2, 3, 4, 5, 6, 7, 8

VTS_01 :
Play Length: 00:00:05
Video: PAL 4:3 (720x576) VBR
Subtitles:
English
English

VTS_02 :
Play Length: 00:00:09
Video: PAL 16:9 (720x576) VBR, Auto Letterboxed
Audio:
Not specified (Dolby AC3, 2 ch)

VTS_03 :
Play Length: 00:01:50
Video: PAL 16:9 (720x576) VBR, Auto Letterboxed
Audio:
Not specified (Dolby AC3, 2 ch)
Not specified (Dolby AC3, 2 ch)
Subtitles:
Not specified

VTS_04 :
Play Length: 02:02:32
Video: PAL 16:9 (720x576) VBR, Auto Letterboxed
Audio:
Russian (Dolby AC3, 6 ch)
Japanese (Dolby AC3, 6 ch)
Subtitles:
Russian

VTS_05 :
Play Length: 00:01:57
Video: PAL 16:9 (720x576) VBR, Auto Letterboxed
Audio:
Not specified (Dolby AC3, 2 ch)
Subtitles:
Not specified

VTS_06 :
Play Length: 00:02:21
Video: PAL 16:9 (720x576) VBR, Auto Letterboxed
Audio:
Not specified (Dolby AC3, 2 ch)
Subtitles:
Not specified

VTS_07 :
Play Length: 00:01:54
Video: PAL 16:9 (720x576) VBR, Auto Letterboxed
Audio:
Not specified (Dolby AC3, 2 ch)
Subtitles:
Not specified

VTS_08 :
Play Length: 00:02:13
Video: PAL 16:9 (720x576) VBR, Auto Letterboxed
Audio:
Not specified (Dolby AC3, 2 ch)
Subtitles:
Not specified

VTS_09 :
Play Length: 00:03:37
Video: PAL 16:9 (720x576) VBR, Auto Letterboxed

* Menus Information *

VIDEO_TS Menu
Video:
PAL 16:9 (720x576) VBR
Auto Pan&Scan, Auto Letterboxed
English Language Unit :
Title Menu

VTS_01 Menu
Video:
PAL 16:9 (720x576) VBR
Auto Letterboxed
Audio:
Not specified (Dolby AC3, 2 ch)
English Language Unit :
Root Menu

VTS_02 Menu
Video:
PAL 4:3 (720x576) VBR
English Language Unit :
Root Menu

VTS_03 Menu
Video:
PAL 4:3 (720x576) VBR
English Language Unit :
Root Menu

VTS_04 Menu
Video:
PAL 4:3 (720x576) VBR
English Language Unit :
Root Menu
Chapter (PTT) Menu

VTS_05 Menu
Video:
PAL 4:3 (720x576) VBR
English Language Unit :
Root Menu

VTS_06 Menu
Video:
PAL 4:3 (720x576) VBR
English Language Unit :
Root Menu

VTS_07 Menu
Video:
PAL 4:3 (720x576) VBR
English Language Unit :
Root Menu

VTS_08 Menu
Video:
PAL 4:3 (720x576) VBR
English Language Unit :
Root Menu

VTS_09 Menu
Video:
PAL 4:3 (720x576) VBR
English Language Unit :
Root Menu
Общее
Полное имя : J:\Новинки 2012\Harakiri.3D.2011.DVD5\VIDEO_TS\VTS_04_2.VOB
Формат : MPEG-PS
Размер файла : 1024 Мбайт
Продолжительность : 32 м.
Режим общего битрейта : Переменный
Общий поток : 4469 Кбит/сек

Видео
Идентификатор : 224 (0xE0)
Формат : MPEG Video
Версия формата : Version 2
Профиль формата : Main@Main
Параметр BVOP формата : Да
Параметр матрицы формата : По умолчанию
Параметр GOP формата : M=3, N=12
Продолжительность : 32 м.
Вид битрейта : Переменный
Битрейт : 3548 Кбит/сек
Максимальный битрейт : 8000 Кбит/сек
Ширина : 720 пикселей
Высота : 576 пикселей
Соотношение сторон : 16:9
Частота кадров : 25,000 кадров/сек
Стандарт вещания : PAL
Цветовое пространство : YUV
Субдискретизация насыщенности : 4:2:0
Битовая глубина : 8 бит
Тип развёртки : Прогрессивная
Метод сжатия : С потерями
Бит/(Пиксели*Кадры) : 0.342
Размер потока : 813 Мбайт (79%)

Аудио #1
Идентификатор : 189 (0xBD)-128 (0x80)
Формат : AC-3
Формат/Информация : Audio Coding 3
Расширение режима : CM (complete main)
Параметр Endianness формата : Big
Режим смешивания : DVD-Video
Продолжительность : 32 м.
Вид битрейта : Постоянный
Битрейт : 384 Кбит/сек
Каналы : 6 каналов
Расположение каналов : Front: L C R, Side: L R, LFE
Частота : 48,0 КГц
Битовая глубина : 16 бит
Метод сжатия : С потерями
Задержка видео : -576 мс.
Размер потока : 88,0 Мбайт (9%)

Аудио #2
Идентификатор : 189 (0xBD)-129 (0x81)
Формат : AC-3
Формат/Информация : Audio Coding 3
Расширение режима : CM (complete main)
Параметр Endianness формата : Big
Режим смешивания : DVD-Video
Продолжительность : 32 м.
Вид битрейта : Постоянный
Битрейт : 448 Кбит/сек
Каналы : 6 каналов
Расположение каналов : Front: L C R, Side: L R, LFE
Частота : 48,0 КГц
Битовая глубина : 16 бит
Метод сжатия : С потерями
Задержка видео : -576 мс.
Размер потока : 103 Мбайт (10%)

Текст
Идентификатор : 189 (0xBD)-32 (0x20)
Формат : RLE
Формат/Информация : Run-length encoding
Режим смешивания : DVD-Video
Продолжительность : 31 м.
Задержка видео : 2 с. 0 мс.










pb.wtf



Скачать Харакири 3D через торрент http://i41.fastpic.ru/big/2012/0822/06/03b33506325bfbb6f609a6631dbcf806.png Скачать фильм Харакири 3D через торрент бесплантно в хорошем качестве Описание: Желая достойно умереть, обедневший самурай Хаширо просит позволения совершить ритуальное самоубийство в родовой резиденции клана ... 5 10 1
Info! Золотая раздача, скачанное не засчитывается.
Торрент: Зарегистрирован [2012-08-22 08:57] · скачан: 45 раз
Статус: √ проверено
Размер: 4.36 GB
Как cкачать? Как скачать Харакири 3D через торрент | UTorrent

28-11-2019 20:33  

Отключить всю рекламу на сайте

22-08-2012 09:15 Харакири 3D Скачать торрент  

Агитации запрещены,не?pb.wtf



22-08-2012 09:32 Харакири 3D Скачать торрент  

SEYTER, Не путай игровые разделы с фильмовыми!pb.wtf



23-08-2012 15:32 Харакири 3D Скачать торрент  

все конечно хорошо а зачем выкладывать фильмы старого образца (анаглиф)формат который уже умер если есть вертикальная стерео параpb.wtf



    Дорогой пользователь! Огромная просьба, поблагодарите релизера, оцените раздачу и оставьте свои комментарий, если Вы скачали Харакири 3D через торрент бесплатно! Внесите свою лепту в развитие PiratBit!
    Комментировать посты могут только пользователи прошедшие не сложную регистрацию
    Показать сообщения:    

    Харакири 3D через торрент
    Скачать бесплатно Харакири 3D
    Харакири 3D скачать торрент
    Харакири 3D смотреть онлайн
    Cкачать фильм Харакири 3D бесплатно
    Харакири 3D скачать торрент в хорошем качестве
    Харакири 3D смотреть онлайн бесплатно в хорошем качестве


    Вы не можете начинать темы
    Вы не можете отвечать на сообщения
    Вы не можете редактировать свои сообщения
    Вы не можете удалять свои сообщения
    Вы не можете голосовать в опросах
    Вы не можете прикреплять файлы к сообщениям
    Вы можете скачивать файлы