MEGA NEWS Получи личный уникальный адрес сайта и защити себя от блокировок. Внимание количество ограничено!!!

iTunes

1+1

iTunes

мы

iTunes

1

iTunes

Чернобыль

iTunes

Ральф против интернета

Лицензия

ПШазам

Лицензия

Игра престолов

Лицензия

30
pack

ВАЖНО

!!Акция!!

Alien_RageХит недели

RePack

Resident Evil 21

ИГРА 18+

pack

RePack

Metro:Exodus

!!Акция!!

Alien_Rage

RePack

fifa19

RePack

Assassins Creed: Odyssey

RePack

NEED FOR SPEED™ PAYBACK

3 сезон

9 сезон

Бесстыжие 9 сезон

Все сериалы

все сериалы на PB.wtf

RePack

FAR CRY 5
Ребята, катастрофически не хватает 1900р. для оплаты серверов за АВГУСТ (всвязи с блокировками трафик упал в 3 раза), 1-2р., выручайте.
  

Космические яйца / Spaceballs (Мэл Брукс) [1987 г., фантастика, комедия, приключения, HDTV, MVO, лицензия] pb.wtf

Космические яйца через торрент pb.wtf

Качают: 1 [ 0 KB/s ]
Размер: 1.46 GB | Добавлен: 7 лет 1 мес. назад | Торрент скачан:140 раз
Скачать  

22-08-2012 11:03 Космические яйца Скачать торрент  

Космические яйца / Spaceballs

Год выпуска: 1987
Страна: США
Жанр: фантастика, комедия, приключения
Продолжительность: 01:36
Перевод: Профессиональный многоголосый, Лицензия (+ 2 любительских одноголосых)

Режиссер: Мэл Брукс
Продюссер: Мэл Брукс, Эзра Свердлоу
Сценарий: Мэл Брукс, Томас Миан, Ронни Грэм

Бюджет: $22 700 000
Премьера в мире: 24 июня 1987




В ролях: Мел Брукс, Рик Моранис, Билл Пуллман, Дафна Зунига, Джон Кэнди, Джордж Уайнер, Джоан Риверз, Дик Ван Паттен, Майкл Уинслоу, Лорен Ярнелл, Джон Хёрт, Сэл Вискузо, Ронни Грэм, Дж.М.Дж. Буллок, Лесли Бевис, Джим Джекман, Майк Пневски, Сэнди Хелберг, Стивен Тоболовски, Джефф МакГрегор

Описание: Обитатели планеты Космические Яйца бездарно растранжирив атмосферу собственной планеты пытаются похитить атмосферу у соседней планеты Друидия. Чтобы заставить короля Друидии открыть щит, защищающий атмосферу планету, агрессоры похищают его дочь - принцессу Веспу. Король планеты Друидия обращается к единственному, кто может сорвать планы злодеев, космическому герою Одинокому Звезде. Вместе со своим компаньоном, человеко-псом, они вступают в борьбу...

Доп. информация: - Название фильма обыгрывает английское жаргонное название яичек (balls).
- В одной из сцен на полке с видеокассетами лежат все фильмы Мэла Брукса, снятые на тот момент.
- При трансформации «Космобола 1» в Мегагорничную Лорд Шлем командует: «Начинайте метаморфозу, пароль „Кафка“» — это аллюзия на рассказ Франца Кафки «Превращение» (The Metamorphosis в английском варианте перевода).
- Сила Шварца (Schwarz power) в виде световых мечей является фаллическим намёком, здесь также обыгрывается название-эвфемизм пениса на немецком и идиш (Schwanz) и известная в США фирма по продаже игрушек FAO Schwarz (англ.).
- В конце фильма есть сцена с пародией на фильм «Чужой» с выскакиванием монстра из живота персонажа, которого играет Джон Хёрт (сыгравший в оригинале) и зовут его как в фильме — Кейн. После выскакивания пришельца он говорит «Нет, опять!».
- Мэл Брукс снял продолжение к фильму (предсказанное ещё в первом фильме мудрым Йогуртом: Если Господь попустит, встретимся снова в «Космических яйцах 2: Возвращение кассовых сборов»), вышедшее 21 сентября 2008 года[2] в виде мультсериала.
- Это самый дорогой фильм, снятый Мэлом Бруксом. Его бюджет составил 22,7 миллиона долларов.
- В фильме есть сцена с пародией на «Большую прогулку» с Луи де Фюнесом, когда косоглазый рядовой Задница с корабля «Космобол 1» вместо Одинокой Звеззды сбивает один из своих истребителей.
- Мэл Брукс поинтересовался у Джорджа Лукаса, может ли он снять на его фильмы пародию, режиссёр восхищался фильмом «Молодой Франкенштейн» и дал своё разрешение.

Качество: HDTV
Формат: AVI
Видео кодек: XVID
Аудио кодек: AC3
Видео: 720x400, 23.98 fps, 1261 kbps avg
Аудио#1: 6 ch, 48 kHz, 384 kbps avg (Профессиональный многоголосый)
Аудио#2: 6 ch, 48 kHz, 384 kbps avg (Любительский одноголосый)
Аудио#3: 2 ch, 48 kHz, 128 kbps avg (Любительский одноголосый)










Формат : AVI
Формат/Информация : Audio Video Interleave
Размер файла : 1,46 Гбайт
Продолжительность : 1 ч. 36 м.
Общий поток : 2171 Кбит/сек
Программа кодирования : VirtualDubMod 1.5.10.2 (build 2540/release)
Библиотека кодирования : VirtualDubMod build 2540/release

Видео
Идентификатор : 0
Формат : MPEG-4 Visual
Профиль формата : Advanced Simple@L5
Параметр BVOP формата : 3
Параметр QPel формата : Нет
Параметр GMC формата : Без точки перехода
Параметр матрицы формата : Выборочная
Идентификатор кодека : XVID
Идентификатор кодека/Подсказка : XviD
Продолжительность : 1 ч. 36 м.
Битрейт : 1261 Кбит/сек
Ширина : 720 пикселей
Высота : 400 пикселей
Соотношение сторон : 16:9
Частота кадров : 23,976 кадра/сек
Цветовое пространство : YUV
Субдискретизация насыщенности : 4:2:0
Битовая глубина : 8 бит
Тип развёртки : Прогрессивная
Метод сжатия : С потерями
Бит/(Пиксели*Кадры) : 0.183
Размер потока : 868 Мбайт (58%)
Библиотека кодирования : XviD 1.2.1 (UTC 2008-12-04)

Аудио #1
Идентификатор : 1
Формат : AC-3
Формат/Информация : Audio Coding 3
Расширение режима : CM (complete main)
Параметр Endianness формата : Big
Идентификатор кодека : 2000
Продолжительность : 1 ч. 36 м.
Вид битрейта : Постоянный
Битрейт : 384 Кбит/сек
Каналы : 6 каналов
Расположение каналов : Front: L C R, Side: L R, LFE
Частота : 48,0 КГц
Битовая глубина : 16 бит
Метод сжатия : С потерями
Размер потока : 264 Мбайт (18%)
Выравнивание : Соединение по промежуткам
Продолжительность промежутка : 42 мс. (1,00 видеокадр)
Время предзагрузки промежутка : 512 мс.

Аудио #2
Идентификатор : 2
Формат : AC-3
Формат/Информация : Audio Coding 3
Расширение режима : CM (complete main)
Параметр Endianness формата : Big
Идентификатор кодека : 2000
Продолжительность : 1 ч. 35 м.
Вид битрейта : Постоянный
Битрейт : 384 Кбит/сек
Каналы : 6 каналов
Расположение каналов : Front: L C R, Side: L R, LFE
Частота : 48,0 КГц
Битовая глубина : 16 бит
Метод сжатия : С потерями
Размер потока : 262 Мбайт (18%)
Выравнивание : Разделение по промежуткам
Продолжительность промежутка : 42 мс. (1,01 видеокадр)
Время предзагрузки промежутка : 500 мс.

Аудио #3
Идентификатор : 3
Формат : AC-3
Формат/Информация : Audio Coding 3
Расширение режима : CM (complete main)
Параметр Endianness формата : Big
Идентификатор кодека : 2000
Продолжительность : 1 ч. 35 м.
Вид битрейта : Постоянный
Битрейт : 128 Кбит/сек
Каналы : 2 канала
Расположение каналов : Front: L R
Частота : 48,0 КГц
Битовая глубина : 16 бит
Метод сжатия : С потерями
Размер потока : 87,3 Мбайт (6%)
Выравнивание : Разделение по промежуткам
Продолжительность промежутка : 42 мс. (1,01 видеокадр)
Время предзагрузки промежутка : 500 мс.
pb.wtf



Скачать Космические яйца через торрент http://pic.kartinco.top/images/1/6krb9911xa.jpg Скачать фильм Космические яйца через торрент бесплантно в хорошем качестве Описание: Обитатели планеты Космические Яйца бездарно растранжирив атмосферу собственной планеты пытаются похитить атмосферу у соседней ... 9.6 10 7
Info! Золотая раздача, скачанное не засчитывается.
Торрент: Зарегистрирован [2012-08-22 11:03] · скачан: 140 раз
Статус: √ проверено
Размер: 1.46 GB
Как cкачать? Как скачать Космические яйца через торрент | qTorrent

% Раздел Тема Автор DL S | L
Ultra HD (UHD: 2K, 4K, 8K) — видео сверхвысокой чёткости [ 20.68 GB ] Космические яйца / Spaceballs [1987 пародия UHD WEBRip 2160p] 2xMVO + 2xAVO sheker187 Скачать
2 | 0


Последний раз редактировалось: baltcer (2012-08-22 13:44), всего редактировалось 8 раз(а)


>> Регистрируемся здесь <<






Отзывы и комментарии о схеме читаем и пишем здесь: ---> Отзывы и комментарии о схеме

Новые благодарочки в телеграм довольных пользователей:
скриншот   скриншот   скриншот   скриншот   скриншот

22-08-2012 11:59 Космические яйца Скачать торрент  

baltcer
MediaInfo добавьте пожалуйста.
Как получить информацию по видео файлу? pb.wtf



22-08-2012 12:45 Космические яйца Скачать торрент  

baltcer
Исправьте тех. данные звука(у Вас 3 аудио дорожки) и видео (битрейт) в соответствии с MediaInfopb.wtf



22-08-2012 12:56 Космические яйца Скачать торрент  

baltcer писал(а):

Перевод: Профессиональный многоголосый, Лицензия

Я так понимаю ето 1 аудио дорожка,укажите 2 другие (тип перевода,оригинал,одноголосый и.тд.)pb.wtf



22-08-2012 12:59 Космические яйца Скачать торрент  

Vetаl писал(а):

baltcer писал(а):

Перевод: Профессиональный многоголосый, Лицензия

Я так понимаю ето 1 аудио дорожка,укажите 2 другие (тип перевода,оригинал,одноголосый и.тд.)

ОК.pb.wtf



12-10-2013 18:30 Космические яйца Скачать торрент  

люди дайте киношку скачать :cray:pb.wtf



13-10-2013 17:19 Космические яйца Скачать торрент  

большое спасибо pb.wtf



    Дорогой пользователь! Огромная просьба, поблагодарите релизера, оцените раздачу и оставьте свои комментарий, если Вы скачали Космические яйца через торрент бесплатно! Внесите свою лепту в развитие PiratBit!
    Комментировать посты могут только пользователи прошедшие не сложную регистрацию
    Показать сообщения:    

    Космические яйца через торрент
    Скачать бесплатно Космические яйца
    Космические яйца скачать торрент
    Космические яйца смотреть онлайн
    Cкачать фильм Космические яйца бесплатно
    Космические яйца скачать торрент в хорошем качестве
    Космические яйца смотреть онлайн бесплатно в хорошем качестве


    Вы не можете начинать темы
    Вы не можете отвечать на сообщения
    Вы не можете редактировать свои сообщения
    Вы не можете удалять свои сообщения
    Вы не можете голосовать в опросах
    Вы не можете прикреплять файлы к сообщениям
    Вы можете скачивать файлы