Мега распродажа FORZA HORIZON 4 ULTIMATE+ВСЕ DLC+ОНЛАЙН всего за 499р. 349 руб. (супер цена). Внимание количество ограничено!!!

Лицензия

30

iTunes

мы

iTunes

1

1 сезон

Чернобыль

1 сезон

Ральф против интернета

MVO

Покемон. Детектив Пикачу

8 сезон

Игра престолов

iTunes

1+1

ИГРА 18+

pack

ВАЖНО

!!Акция!!

Alien_RageХит недели

RePack

Resident Evil 21
pack

RePack

Metro:Exodus

!!Акция!!

Alien_Rage

RePack

fifa19

RePack

Assassins Creed: Odyssey

RePack

NEED FOR SPEED™ PAYBACK

3 сезон

9 сезон

Бесстыжие 9 сезон

Все сериалы

все сериалы на PB.wtf

RePack

FAR CRY 5
Ребята, катастрофически не хватает 2730р. для оплаты серверов за МАЙ (всвязи с блокировками трафик упал в 3 раза), 1-2р., выручайте.
  

Красный райдинг: 1980 / Red Riding: In the Year of Our Lord 1980 (Джеймс Марш) [2009 г., триллер, детектив, драма, криминал, DVDRip, DVO] pb.wtf

Красный райдинг: 1980 через торрент pb.wtf

Размер: 1.36 GB | Добавлен: 6 лет 10 мес. назад | Торрент скачан:20 раз
Скачать  

22-08-2012 15:05 Красный райдинг: 1980 Скачать торрент  

Красный райдинг: 1980 / Red Riding: In the Year of Our Lord 1980

Год выпуска: 2009
Страна: Великобритания
Жанр: триллер, детектив, драма, криминал
Продолжительность: 01:37:29
Перевод: Любительский двухголосый

Режиссер: Джеймс Марш
Продюссер: Венди Бразингтон, Анита Оверлэнд, Эндрю Итон
Сценарий: Тони Гризони, Дэвид Пиис

Премьера в мире: 28 февраля 2009



В ролях: Дэвид Моррисси, Лиза Ховард, Крис Уокер, Шон Дули, Джим Картер, Уоррен Кларк, Шон Бин, Шон Харрис, Стивен Робертсон, Тони Муни

Описание: 1980 год. Вот уже 6 лет в Йоркшире свирепствует маньяк, убивающий молодых женщин. Жители напуганы, в то время как полиция, практически бездействуя, ни на шаг не приблизилась к поимке «Йоркширского Потрошителя». Для проведения тайного расследования действий полиции Йоркшира приглашен помощник начальника полиции Манчестера Питер Хантер. По мере продвижения следствия Хантер все больше убеждается в том, что все это как-то связано с убийствами в клубе «Карачи» в 1974 году…

Качество: DVDRip
Формат: AVI
Видео кодек: XviD
Аудио кодек: AC3
Видео: XviD, 720x304, 1802 kbps, 0.343 bit/pixel, 23.976 fps
Аудио#1: 48 kHz, AC3 2/0. 2 ch, 192.00 kbps
General
Complete name : G:\Торрент фильмы\Krasniy.raiding.1980.2009.avi
Format : AVI
Format/Info : Audio Video Interleave
File size : 1.36 GiB
Duration : 1h 37mn
Overall bit rate : 2 004 Kbps
Writing application : VirtualDubModRus 1.5.10.2 (build 2542/release)
Writing library : VirtualDubMod build 2542/release

Video
ID : 0
Format : MPEG-4 Visual
Format profile : Advanced Simple@L5
Format settings, BVOP : Yes
Format settings, QPel : No
Format settings, GMC : No warppoints
Format settings, Matrix : Default (MPEG)
Codec ID : XVID
Codec ID/Hint : XviD
Duration : 1h 37mn
Bit rate : 1 802 Kbps
Width : 720 pixels
Height : 304 pixels
Display aspect ratio : 2.35:1
Frame rate : 23.976 fps
Resolution : 8 bits
Colorimetry : 4:2:0
Scan type : Progressive
Bits/(Pixel*Frame) : 0.343
Stream size : 1.23 GiB (90%)
Writing library : XviD 1.2.1 (UTC 2008-12-04)

Audio
ID : 1
Format : AC-3
Format/Info : Audio Coding 3
Codec ID : 2000
Duration : 1h 37mn
Bit rate mode : Constant
Bit rate : 192 Kbps
Channel(s) : 2 channels
Channel positions : L R
Sampling rate : 48.0 KHz
Stream size : 134 MiB (10%)
Alignment : Split accross interleaves
Interleave, duration : 42 ms (1.00 video frame)
Interleave, preload duration : 500 ms

pb.wtf



Скачать Красный райдинг: 1980 через торрент http://pic.kartinco.top/images/1/azo57vk161.jpg Скачать фильм Красный райдинг: 1980 через торрент бесплантно в хорошем качестве Описание: 1980 год. Вот уже 6 лет в Йоркшире свирепствует маньяк, убивающий молодых женщин. Жители напуганы, в то время как полиция, ... 5 10 1
Info! Золотая раздача, скачанное не засчитывается.
Торрент: Зарегистрирован [2012-08-22 15:05] · скачан: 20 раз
Статус: √ проверено
Размер: 1.36 GB
Как cкачать? Как скачать Красный райдинг: 1980 через торрент | qTorrent


>> Регистрируемся здесь <<






Отзывы и комментарии о схеме читаем и пишем здесь: ---> Отзывы и комментарии о схеме

Новые благодарочки в телеграм довольных пользователей:
скриншот   скриншот   скриншот   скриншот   скриншот
    Дорогой пользователь! Огромная просьба, поблагодарите релизера, оцените раздачу и оставьте свои комментарий, если Вы скачали Красный райдинг: 1980 через торрент бесплатно! Внесите свою лепту в развитие PiratBit!
    Комментировать посты могут только пользователи прошедшие не сложную регистрацию
    Показать сообщения:    

    Красный райдинг: 1980 через торрент
    Скачать бесплатно Красный райдинг: 1980
    Красный райдинг: 1980 скачать торрент
    Красный райдинг: 1980 смотреть онлайн
    Cкачать фильм Красный райдинг: 1980 бесплатно
    Красный райдинг: 1980 скачать торрент в хорошем качестве
    Красный райдинг: 1980 смотреть онлайн бесплатно в хорошем качестве


    Вы не можете начинать темы
    Вы не можете отвечать на сообщения
    Вы не можете редактировать свои сообщения
    Вы не можете удалять свои сообщения
    Вы не можете голосовать в опросах
    Вы не можете прикреплять файлы к сообщениям
    Вы можете скачивать файлы