MEGA SALE -50% FORZA HORIZON 4 ULTIMATE+ВСЕ DLC+ОНЛАЙН всего за 599р. 299 руб. (супер цена). Внимание количество ограничено!!!

iTunes

1+1

iTunes

мы

iTunes

1

iTunes

Чернобыль

1 сезон

Ральф против интернета

Лицензия

ПШазам

Лицензия

Игра престолов

Лицензия

30
pack

ВАЖНО

!!Акция!!

Alien_RageХит недели

RePack

Resident Evil 21

ИГРА 18+

pack

RePack

Metro:Exodus

!!Акция!!

Alien_Rage

RePack

fifa19

RePack

Assassins Creed: Odyssey

RePack

NEED FOR SPEED™ PAYBACK

3 сезон

9 сезон

Бесстыжие 9 сезон

Все сериалы

все сериалы на PB.wtf

RePack

FAR CRY 5
Ребята, катастрофически не хватает 7730р. для оплаты серверов за ИЮЛЬ (всвязи с блокировками трафик упал в 3 раза), 1-2р., выручайте.
  

Красный райдинг: 1983 / Red Riding: In the Year of Our Lord 1983 (Ананд Такер) [2009 г., триллер, детектив, драма, криминал, DVDRip, DVO] pb.wtf

Красный райдинг: 1983 через торрент pb.wtf

Размер: 1.37 GB | Добавлен: 6 лет 11 мес. назад | Торрент скачан:33 раза
Скачать  

22-08-2012 15:07 Красный райдинг: 1983 Скачать торрент  

Красный райдинг: 1983 / Red Riding: In the Year of Our Lord 1983

Год выпуска: 2009
Страна: Великобритания
Жанр: триллер, детектив, драма, криминал
Продолжительность: 01:44:41
Перевод: Любительский двухголосый

Режиссер: Ананд Такер
Продюссер: Анита Оверлэнд, Венди Бразингтон, Эндрю Итон
Сценарий: Тони Гризони, Дэвид Пиис

Премьера в мире: 7 февраля 2009



В ролях: Дэвид Моррисси, Крис Уокер, Шон Дули, Джим Картер, Уоррен Кларк, Шон Бин, Шон Харрис, Стивен Робертсон, Тони Муни

Описание: Таинственный маньяк, похищавший и убивавший детей в Йоркшире, вновь дает о себе знать, в то время как коррумпированные полицейские, убежденные в своей безнаказанности, арестовывают, пытают и убивают ни в чем не повинных людей.

Качество: DVDRip
Формат: AVI
Видео кодек: XviD
Аудио кодек: AC3
Видео: XviD, 720x304, 1668 kbps, 0.318 bit/pixel, 23.976 fps
Аудио#1: 48 kHz, AC3 2/0. 2 ch, 192.00 kbps
General
Complete name : G:\Торрент фильмы\Krasniy.raiding.1983.2009.avi
Format : AVI
Format/Info : Audio Video Interleave
File size : 1.37 GiB
Duration : 1h 44mn
Overall bit rate : 1 870 Kbps
Writing application : VirtualDubMod 1.5.10.2 (build 2540/release)
Writing library : VirtualDubMod build 2540/release

Video
ID : 0
Format : MPEG-4 Visual
Format profile : Advanced Simple@L5
Format settings, BVOP : Yes
Format settings, QPel : No
Format settings, GMC : No warppoints
Format settings, Matrix : Default (MPEG)
Codec ID : XVID
Codec ID/Hint : XviD
Duration : 1h 44mn
Bit rate : 1 669 Kbps
Width : 720 pixels
Height : 304 pixels
Display aspect ratio : 2.35:1
Frame rate : 23.976 fps
Resolution : 8 bits
Colorimetry : 4:2:0
Scan type : Progressive
Bits/(Pixel*Frame) : 0.318
Stream size : 1.22 GiB (89%)
Writing library : XviD 1.2.1 (UTC 2008-12-04)

Audio
ID : 1
Format : AC-3
Format/Info : Audio Coding 3
Codec ID : 2000
Duration : 1h 44mn
Bit rate mode : Constant
Bit rate : 192 Kbps
Channel(s) : 2 channels
Channel positions : L R
Sampling rate : 48.0 KHz
Stream size : 144 MiB (10%)
Alignment : Split accross interleaves
Interleave, duration : 42 ms (1.00 video frame)
Interleave, preload duration : 500 ms

pb.wtf



Скачать Красный райдинг: 1983 через торрент http://pic.kartinco.top/images/1/kqp3t179c6.jpg Скачать фильм Красный райдинг: 1983 через торрент бесплантно в хорошем качестве Описание: Таинственный маньяк, похищавший и убивавший детей в Йоркшире, вновь дает о себе знать, в то время как коррумпированные ... 5 10 1
Info! Золотая раздача, скачанное не засчитывается.
Торрент: Зарегистрирован [2012-08-22 15:07] · скачан: 33 раз
Статус: √ проверено
Размер: 1.37 GB
Как cкачать? Как скачать Красный райдинг: 1983 через торрент | qTorrent


>> Регистрируемся здесь <<






Отзывы и комментарии о схеме читаем и пишем здесь: ---> Отзывы и комментарии о схеме

Новые благодарочки в телеграм довольных пользователей:
скриншот   скриншот   скриншот   скриншот   скриншот
    Дорогой пользователь! Огромная просьба, поблагодарите релизера, оцените раздачу и оставьте свои комментарий, если Вы скачали Красный райдинг: 1983 через торрент бесплатно! Внесите свою лепту в развитие PiratBit!
    Комментировать посты могут только пользователи прошедшие не сложную регистрацию
    Показать сообщения:    

    Красный райдинг: 1983 через торрент
    Скачать бесплатно Красный райдинг: 1983
    Красный райдинг: 1983 скачать торрент
    Красный райдинг: 1983 смотреть онлайн
    Cкачать фильм Красный райдинг: 1983 бесплатно
    Красный райдинг: 1983 скачать торрент в хорошем качестве
    Красный райдинг: 1983 смотреть онлайн бесплатно в хорошем качестве


    Вы не можете начинать темы
    Вы не можете отвечать на сообщения
    Вы не можете редактировать свои сообщения
    Вы не можете удалять свои сообщения
    Вы не можете голосовать в опросах
    Вы не можете прикреплять файлы к сообщениям
    Вы можете скачивать файлы