Ссылка на приватное зеркало нашего сайта всего за 1$. Внимание количество ограничено!!!

2 сезон

iTunes

1 сезон

1

iTunes

iTunes

iTunes

1 сезон

RePack

30

ИГРА 18+

pack

ВАЖНО

!!Акция!!

Alien_RageХит недели

RePack

MK11
pack

Забери бонус

RePack

jed

!!Акция!!

Alien_Rage

RePack

fifa19

RePack

Assassins Creed: Odyssey

RePack

NEED FOR SPEED™ PAYBACK

4 сезон

9 сезон

Бесстыжие 9 сезон

Все сериалы

все сериалы на PB.wtf

RePack

FAR CRY 5
  

Не было бы счастья / Серии: 1-4 из 4 (Алексей Праздников) [2012, мелодрама, DVD9] R5 pb.wtf

Не было бы счастья через торрент pb.wtf

Размер: 7.29 GB | Добавлен: 8 лет 1 мес. назад | Торрент скачан:51 раз
Скачать  

22-08-2012 18:33 Не было бы счастья Скачать торрент  


Не было бы счастья
Страна: Россия
Студия: Грин-фильм, Приор Продакшн
Жанр: мелодрама
Год выпуска: 2012
Дата выхода DVD: 7 августа 2012
Продолжительность: 208 мин.
Перевод: Оригинал [Лицензия]
Cубтитры: нет
Оригинальная аудиодорожка: русский
Режиссер: Алексей Праздников
В ролях: Алексей Барабаш, Наталия Антонова, Влада Макейчик, Елена Купрашевич, Андрей Кузнецов, Регина Щукина, Константин Воробьёв
Описание: Алена может считаться вполне успешной дамой: умная, красивая, с хорошей работой в финансовой компании, квартирой в центре Москвы, надежным непьющим гражданским мужем Олегом. Счастье близко, но есть проблема: Олег категорически против детей. Однажды компания Алены устраивала корпоративную вечеринку. На нее, как водится, пригласили «звезду». Вадим, сорокалетний певец, развлекал публику любимыми хитами. Между ним и Аленой вспыхнул роман. Они провели безумную, страстную ночь. Такого в жизни Алены еще не было. Алена, жившая со спокойным, рассудительным Олегом, никогда ему не изменявшая, была просто ошеломлена. Ради Алены Вадим готов развестись с «давно-не-любимой» женой, завести вместе детей и бросить к ее ногам весь мир. Алена стоит перед сложным выбором - спокойная жизнь с Олегом, но детей в ней не будет, или «звездная» жизнь с Вадимом со всеми ее сложностями...
Бонусы: Нет

Релиз группы:
Качество: DVD9 R5
Формат: DVD-Video
Видео кодек: MPEG2
Аудио кодек: AC3
Видео: PAL 16:9 (720x576(0.494)) MPEG Video, 25,000 кадр/сек, 5124 Кбит/сек
Аудио: Russian (Dolby AC3, 2 ch) 192 Кбит/сек, 48,0 КГц



Title: Ne.bylo.by.schastja.2012.DVD9
Size: 7.29 Gb ( 7 642 708,00 KBytes ) - DVD-9
Enabled regions: 1, 2, 3, 4, 5, 6, 7, 8

VTS_01 :
Play Length: 00:00:25
Video: PAL 4:3 (720x576) VBR
Audio:
Russian (Dolby AC3, 6 ch)

VTS_02 :
Play Length: 00:52:02
Video: PAL 16:9 (720x576) VBR, Auto Pan&Scan, Auto Letterboxed
Audio:
Russian (Dolby AC3, 2 ch)

VTS_03 :
Play Length: 00:49:58
Video: PAL 16:9 (720x576) VBR, Auto Pan&Scan, Auto Letterboxed
Audio:
Russian (Dolby AC3, 2 ch)

VTS_04 :
Play Length: 00:52:02
Video: PAL 16:9 (720x576) VBR, Auto Pan&Scan, Auto Letterboxed
Audio:
Russian (Dolby AC3, 2 ch)

VTS_05 :
Play Length: 00:51:44
Video: PAL 16:9 (720x576) VBR, Auto Pan&Scan, Auto Letterboxed
Audio:
Russian (Dolby AC3, 2 ch)

* Menus Information *

VIDEO_TS Menu
Video:
PAL 4:3 (720x576) VBR
English Language Unit :
Title Menu

VTS_01 Menu
Video:
PAL 4:3 (720x576) VBR
Audio:
Not specified (Dolby AC3, 2 ch)
English Language Unit :
Root Menu
Chapter (PTT) Menu

VTS_02 Menu
Video:
PAL 4:3 (720x576) VBR
English Language Unit :
Root Menu
Chapter (PTT) Menu

VTS_03 Menu
Video:
PAL 4:3 (720x576) VBR
English Language Unit :
Root Menu
Chapter (PTT) Menu

VTS_04 Menu
Video:
PAL 4:3 (720x576) VBR
English Language Unit :
Root Menu
Chapter (PTT) Menu

VTS_05 Menu
Video:
PAL 4:3 (720x576) VBR
English Language Unit :
Root Menu
Chapter (PTT) Menu
Общее
Полное имя : J:\Новинки 2012\Ne.bylo.by.schastja.2012.DVD9\VIDEO_TS\VTS_02_1.VOB
Формат : MPEG-PS
Размер файла : 1024 Мбайт
Продолжительность : 26 м.
Режим общего битрейта : Переменный
Общий поток : 5424 Кбит/сек

Видео
Идентификатор : 224 (0xE0)
Формат : MPEG Video
Версия формата : Version 2
Профиль формата : Main@Main
Параметр BVOP формата : Да
Параметр матрицы формата : Выборочная
Продолжительность : 26 м.
Вид битрейта : Переменный
Битрейт : 5124 Кбит/сек
Максимальный битрейт : 8000 Кбит/сек
Ширина : 720 пикселей
Высота : 576 пикселей
Соотношение сторон : 16:9
Частота кадров : 25,000 кадров/сек
Стандарт вещания : PAL
Цветовое пространство : YUV
Субдискретизация насыщенности : 4:2:0
Битовая глубина : 8 бит
Тип развёртки : Чересстрочная
Порядок развёртки : Верхнее поле первое
Метод сжатия : С потерями
Бит/(Пиксели*Кадры) : 0.494
Размер потока : 967 Мбайт (94%)

Аудио
Идентификатор : 189 (0xBD)-128 (0x80)
Формат : AC-3
Формат/Информация : Audio Coding 3
Расширение режима : CM (complete main)
Параметр Endianness формата : Big
Режим смешивания : DVD-Video
Продолжительность : 26 м.
Вид битрейта : Постоянный
Битрейт : 192 Кбит/сек
Каналы : 2 канала
Расположение каналов : Front: L R
Частота : 48,0 КГц
Битовая глубина : 16 бит
Метод сжатия : С потерями
Размер потока : 36,2 Мбайт (4%)










pb.wtf



Скачать Не было бы счастья через торрент http://i41.fastpic.ru/big/2012/0822/fb/51f76e448cd509228c9a7f2758d195fb.jpg Скачать фильм Не было бы счастья через торрент бесплантно в хорошем качестве Описание: Алена может считаться вполне успешной дамой: умная, красивая, с хорошей работой в финансовой компании, квартирой в центре Москвы, ... 5 10 1
Info! Золотая раздача, скачанное не засчитывается.
Торрент: Зарегистрирован [2012-08-22 18:33] · скачан: 51 раз
Статус: √ проверено
Размер: 7.29 GB
Как cкачать? Как скачать Не было бы счастья через торрент | qTorrent

28-11-2019 20:33  

Отключить всю рекламу на сайте

    Дорогой пользователь! Огромная просьба, поблагодарите релизера, оцените раздачу и оставьте свои комментарий, если Вы скачали Не было бы счастья через торрент бесплатно! Внесите свою лепту в развитие PiratBit!
    Комментировать посты могут только пользователи прошедшие не сложную регистрацию
    Показать сообщения:    

    Не было бы счастья через торрент
    Скачать бесплатно Не было бы счастья
    Не было бы счастья скачать торрент
    Не было бы счастья смотреть онлайн
    Cкачать фильм Не было бы счастья бесплатно
    Не было бы счастья скачать торрент в хорошем качестве
    Не было бы счастья смотреть онлайн бесплатно в хорошем качестве


    Вы не можете начинать темы
    Вы не можете отвечать на сообщения
    Вы не можете редактировать свои сообщения
    Вы не можете удалять свои сообщения
    Вы не можете голосовать в опросах
    Вы не можете прикреплять файлы к сообщениям
    Вы можете скачивать файлы