Ссылка на приватное зеркало нашего сайта всего за 1$. Внимание количество ограничено!!!

2 сезон

iTunes

1 сезон

1

2 сезон

2 сезон

iTunes

1 сезон

RePack

30

Ultimate

ВАЖНО

ИГРА 18+

pack

RePack

MK11
pack

Забери бонус

RePack

jed

!!Акция!!

Alien_Rage

RePack

fifa19

RePack

Assassins Creed: Odyssey

RePack

NEED FOR SPEED™ PAYBACK

4 сезон

9 сезон

Бесстыжие 9 сезон

Все сериалы

все сериалы на PB.wtf

RePack

FAR CRY 5
  

Звездный десант: Вторжение / Starship Troopers: Invasion (Синдзи Арамаки) [2012 г., Анимационный, фантастика, боевик, BDRemux , Профессиональный (многоголосный) + Оригинал] pb.wtf

Звездный десант: Вторжение через торрент pb.wtf

Размер: 17.49 GB | Добавлен: 8 лет 3 мес. назад | Торрент скачан:10 раз
Скачать  

23-08-2012 12:21 Звездный десант: Вторжение Скачать торрент  

Звездный десант: Вторжение / Starship Troopers: Invasion

Год выпуска: 2012
Страна: США, Япония, Sola Digital Arts, Stage 6 Films
Жанр: Анимационный, фантастика, боевик
Продолжительность: 01:28:48
Перевод: Профессиональный (многоголосный) + Оригинал

Режиссер: Синдзи Арамаки

В ролях: Гретчен Лодж, Джонни Льюис, Александра Холден, Филд Бловелт, Кен Арнольд, Тони Эллис, Лоурен Лакис, Кэти Фостер, Дэниэл Росс, Тодд Райан Джонс

Описание: В преддверье выхода игры «Starship Troopers: Invasion» вышел одноименный анимационный фильм «Звездный десант: Вторжение». Сюжет картины выглядит примерно так: хорошие десантники высаживаются на оккупированную огромными жуками колонию людей на отдаленной планете, чтобы спасти другую группу десантников, затем вторую половину фильма десантники стреляют в жуков, и в конце улетают обратно домой. После запуска фильма в прокат, выйдет одноименная компьютерная игра, на различных платформах.

Качество: BDRemux
Формат: MKV
Видео кодек: Другой MPEG4
Видео: AVC, 1920x1080 (16:9), 23.976 fps, 25.6 Mbp
Аудио#1: AC-3, 48.0 KHz, 6 ch, 448 Kbps, CBR (Russian)MVO-R5
Аудио#2: DTS MA / Core, 48.0 KHz, 6 ch, 1 561 Kbps / 1 510 Kbps, VBR (English)

Субтитры: Russian

Релиз от:

General
Unique ID : 227054996873199007559912681056933161501 (0xAAD133A5E4BE89D88268B061D876AA1D)
Complete name : D:\Starship.Troopers.Invasion.2012.x264.BDRemux.()1080p).mkv
Format : Matroska
Format version : Version 2
File size : 17.5 GiB
Duration : 1h 28mn
Overall bit rate mode : Variable
Overall bit rate : 28.2 Mbps
Movie name : =Kinozal.tv= by =parravoz=
Encoded date : UTC 2012-08-23 04:04:17
Writing application : mkvmerge v4.6.0 ('Still Crazy After All These Years') сборка от Apr 1 2011 21:01:49
Writing library : libebml v1.2.0 + libmatroska v1.1.0

Video
ID : 1
Format : AVC
Format/Info : Advanced Video Codec
Format profile : High@L4.1
Format settings, CABAC : Yes
Format settings, ReFrames : 2 frames
Format settings, GOP : M=1, N=10
Codec ID : V_MPEG4/ISO/AVC
Duration : 1h 28mn
Bit rate mode : Variable
Bit rate : 25.6 Mbps
Width : 1 920 pixels
Height : 1 080 pixels
Display aspect ratio : 16:9
Frame rate mode : Constant
Frame rate : 23.976 fps
Color space : YUV
Chroma subsampling : 4:2:0
Bit depth : 8 bits
Scan type : Progressive
Bits/(Pixel*Frame) : 0.516
Stream size : 15.9 GiB (91%)
Title : Zvezdnyy desant: Vtorzheniye / Starship Troopers: Invasion
Default : Yes
Forced : No

Audio #1
ID : 2
Format : AC-3
Format/Info : Audio Coding 3
Mode extension : CM (complete main)
Format settings, Endianness : Big
Codec ID : A_AC3
Duration : 1h 28mn
Bit rate mode : Constant
Bit rate : 448 Kbps
Channel(s) : 6 channels
Channel positions : Front: L C R, Side: L R, LFE
Sampling rate : 48.0 KHz
Bit depth : 16 bits
Compression mode : Lossy
Stream size : 285 MiB (2%)
Title : MVO (R5)
Language : Russian
Default : Yes
Forced : No

Audio #2
ID : 3
Format : DTS
Format/Info : Digital Theater Systems
Format profile : MA / Core
Codec ID : A_DTS
Duration : 1h 28mn
Bit rate mode : Variable
Bit rate : 1 561 Kbps / 1 510 Kbps
Channel(s) : 6 channels
Channel positions : Front: L C R, Side: L R, LFE
Sampling rate : 48.0 KHz
Bit depth : 16 bits
Compression mode : Lossless / Lossy
Title : Original
Language : English
Default : No
Forced : No

Text
ID : 4
Format : UTF-8
Codec ID : S_TEXT/UTF8
Codec ID/Info : UTF-8 Plain Text
Title : Russkie
Language : Russian
Default : No
Forced : No

Menu
00:00:00.000 : en:Chapter 00
00:06:01.611 : en:Chapter 01
00:10:44.393 : en:Chapter 02
00:16:59.309 : en:Chapter 03
00:20:35.192 : en:Chapter 04
00:26:48.440 : en:Chapter 05
00:32:48.132 : en:Chapter 06
00:39:01.797 : en:Chapter 07
00:44:34.421 : en:Chapter 08
00:51:01.516 : en:Chapter 09
00:56:55.620 : en:Chapter 10
01:00:33.755 : en:Chapter 11
01:04:49.135 : en:Chapter 12
01:08:09.168 : en:Chapter 13
01:13:16.225 : en:Chapter 14
01:18:14.189 : en:Chapter 15

pb.wtf



Скачать Звездный десант: Вторжение через торрент http://pic.lg.ua/x/9/7c847c/2d0310f6.jpg Скачать фильм Звездный десант: Вторжение через торрент бесплантно в хорошем качестве Описание: В преддверье выхода игры «Starship Troopers: Invasion» вышел одноименный анимационный фильм «Звездный десант: Вторжение». Сюжет ... 10 10 2
Info! Золотая раздача, скачанное не засчитывается.
Торрент: Зарегистрирован [2012-08-23 12:21] · скачан: 10 раз
Статус: √ проверено
Размер: 17.49 GB
Как cкачать? Как скачать Звездный десант: Вторжение через торрент | qTorrent

28-11-2019 20:33  

Отключить всю рекламу на сайте

23-08-2012 12:52 Звездный десант: Вторжение Скачать торрент  

AlexKa писал(а):

Перевод: Профессиональный + Оригинал

Укажи тип перевода (дубляж, многоголосный...)pb.wtf



23-08-2012 13:05 Звездный десант: Вторжение Скачать торрент  

Demonessa писал(а):

AlexKa писал(а):

Перевод: Профессиональный + Оригинал

Укажи тип перевода (Dub, многоголосный...)

тут дубляжа нету тут многоосная версия pb.wtf



23-08-2012 14:25 Звездный десант: Вторжение Скачать торрент  

когда проверите?pb.wtf



24-08-2012 09:46 Звездный десант: Вторжение Скачать торрент  

AlexKa
так и надо дописать было что многоголосный, а то непонятно какой именно дублированный или многоголосный
дописалаpb.wtf



12-09-2012 10:50 Звездный десант: Вторжение Скачать торрент  

эх........скорости бы .......... :paratrooper:pb.wtf



30-07-2016 15:04 Звездный десант: Вторжение Скачать торрент  

Есть возможность оживить раздачу?pb.wtf



    Дорогой пользователь! Огромная просьба, поблагодарите релизера, оцените раздачу и оставьте свои комментарий, если Вы скачали Звездный десант: Вторжение через торрент бесплатно! Внесите свою лепту в развитие PiratBit!
    Комментировать посты могут только пользователи прошедшие не сложную регистрацию
    Показать сообщения:    

    Звездный десант: Вторжение через торрент
    Скачать бесплатно Звездный десант: Вторжение
    Звездный десант: Вторжение скачать торрент
    Звездный десант: Вторжение смотреть онлайн
    Cкачать фильм Звездный десант: Вторжение бесплатно
    Звездный десант: Вторжение скачать торрент в хорошем качестве
    Звездный десант: Вторжение смотреть онлайн бесплатно в хорошем качестве


    Вы не можете начинать темы
    Вы не можете отвечать на сообщения
    Вы не можете редактировать свои сообщения
    Вы не можете удалять свои сообщения
    Вы не можете голосовать в опросах
    Вы не можете прикреплять файлы к сообщениям
    Вы можете скачивать файлы