2 сезон

iTunes

1 сезон

1

iTunes

iTunes

iTunes

1 сезон

RePack

30

ИГРА 18+

pack

ВАЖНО

!!Акция!!

Alien_RageХит недели

RePack

MK11
pack

Забери бонус

RePack

jed

!!Акция!!

Alien_Rage

RePack

fifa19

RePack

Assassins Creed: Odyssey

RePack

NEED FOR SPEED™ PAYBACK

4 сезон

9 сезон

Бесстыжие 9 сезон

Все сериалы

все сериалы на PB.wtf

RePack

FAR CRY 5
  

Служить и защищать / Protéger & servir / Proteger & Servir (Эрик Лавэн) [2010 г., комедия, криминал, HDRip, Rus. MVO + Ger. DUB] pb.wtf

Служить и защищать через торрент pb.wtf

Размер: 1.46 GB | Добавлен: 8 лет 2 мес. назад | Торрент скачан:83 раза
Скачать  

24-08-2012 10:05 Служить и защищать Скачать торрент  

Служить и защищать / Protéger & servir / Proteger & Servir

Год выпуска: 2010
Страна: Франция
Жанр: комедия, криминал
Продолжительность: 01:30:55
Перевод: Rus. Профессиональный многоголосый + Ger. Dub

Режиссер: Эрик Лавэн
Продюссер: Франсуа Корню, Женевьева Лемаль, Александр Липпенс
Сценарий: Эрик Лавэн, Гектор Кабелло Рейс, Жан-Пол Батани

Премьера в мире: 22 января 2010



В ролях: Кад Мерад, Кловис Корнийяк, Кароль Буке, Франсуа Дамиенс, Эльза Кикуэн, Жан-Люк Кучар, Анри Гибе, Стефан Войтович, Жерар Люссин, Джонатан Ламберт

Описание: Друзья Ким Хуанг и Мишель Будрио — полицейские. Они неразлучны с тех пор, как встретились в сиротском приюте. Скупердяй Хуанг обладает необычайной притягательной силой для некрасивых женщин, а Будрио — наивный святоша, который спит и видит написать сценарий христианского полицейского сериала. Они — не лучшие полицейские ни Франции, ни Парижского округа, ни даже своего комиссариата. Однако именно им предстоит пройти сложнейшее испытание за всю свою карьеру: под командованием главы национальной полиции госпожи Од Леттелье противостоять волне чудовищных террористических актов…

Качество: HDRip
Формат: AVI
Видео кодек: XviD
Аудио кодек: AC3
Видео: 720x384 (1.88:1), 24.000 fps, XviD build 50 ~1903 kbps avg, 0.287 bit/pixel
Аудио#1: 48 kHz, AC3 Dolby Digital, 2/0 (L,R) ch, ~192.00 kbps
Аудио#2: 48 kHz, AC3 Dolby Digital, 2/0 (L,R) ch, ~192.00 kbps

General
Complete name : G:\Торрент фильмы\Sluzhit.i.zashishat.2010.P.HDRip.avi
Format : AVI
Format/Info : Audio Video Interleave
File size : 1.46 GiB
Duration : 1h 30mn
Overall bit rate : 2 298 Kbps
Writing application : VirtualDubMod 1.5.10.2 (build 2540/release)
Writing library : VirtualDubMod build 2540/release

Video
ID : 0
Format : MPEG-4 Visual
Format profile : Advanced Simple@L5
Format settings, BVOP : Yes
Format settings, QPel : No
Format settings, GMC : No warppoints
Format settings, Matrix : Default (MPEG)
Codec ID : XVID
Codec ID/Hint : XviD
Duration : 1h 30mn
Bit rate : 1 903 Kbps
Width : 720 pixels
Height : 384 pixels
Display aspect ratio : 1.875
Frame rate : 24.000 fps
Resolution : 8 bits
Colorimetry : 4:2:0
Scan type : Progressive
Bits/(Pixel*Frame) : 0.287
Stream size : 1.21 GiB (83%)
Writing library : XviD 1.2.1 (UTC 2008-12-04)

Audio #1
ID : 1
Format : AC-3
Format/Info : Audio Coding 3
Codec ID : 2000
Duration : 1h 30mn
Bit rate mode : Constant
Bit rate : 192 Kbps
Channel(s) : 2 channels
Channel positions : L R
Sampling rate : 48.0 KHz
Stream size : 125 MiB (8%)
Alignment : Split accross interleaves
Interleave, duration : 42 ms (1.00 video frame)
Interleave, preload duration : 500 ms

Audio #2
ID : 2
Format : AC-3
Format/Info : Audio Coding 3
Codec ID : 2000
Duration : 1h 29mn
Bit rate mode : Constant
Bit rate : 192 Kbps
Channel(s) : 2 channels
Channel positions : L R
Sampling rate : 48.0 KHz
Stream size : 123 MiB (8%)
Alignment : Split accross interleaves
Interleave, duration : 42 ms (1.02 video frame)
Interleave, preload duration : 500 ms

pb.wtf



Скачать Служить и защищать через торрент http://i43.fastpic.ru/big/2012/0824/a8/184c102f203a2f544d4d2668b864b1a8.png Скачать фильм Служить и защищать через торрент бесплантно в хорошем качестве Описание: Друзья Ким Хуанг и Мишель Будрио — полицейские. Они неразлучны с тех пор, как встретились в сиротском приюте. Скупердяй Хуанг ... 5 10 1
Info! Золотая раздача, скачанное не засчитывается.
Торрент: Зарегистрирован [2012-08-24 10:05] · скачан: 83 раз
Статус: √ проверено
Размер: 1.46 GB
Как cкачать? Как скачать Служить и защищать через торрент | qTorrent

28-11-2019 20:33  

Отключить всю рекламу на сайте

24-08-2012 13:38 Служить и защищать Скачать торрент  

maygli писал(а):

Перевод: Rus. Профессиональный многоголосый + Ger. Dub?

pb.wtf



    Дорогой пользователь! Огромная просьба, поблагодарите релизера, оцените раздачу и оставьте свои комментарий, если Вы скачали Служить и защищать через торрент бесплатно! Внесите свою лепту в развитие PiratBit!
    Комментировать посты могут только пользователи прошедшие не сложную регистрацию
    Показать сообщения:    

    Служить и защищать через торрент
    Скачать бесплатно Служить и защищать
    Служить и защищать скачать торрент
    Служить и защищать смотреть онлайн
    Cкачать фильм Служить и защищать бесплатно
    Служить и защищать скачать торрент в хорошем качестве
    Служить и защищать смотреть онлайн бесплатно в хорошем качестве


    Вы не можете начинать темы
    Вы не можете отвечать на сообщения
    Вы не можете редактировать свои сообщения
    Вы не можете удалять свои сообщения
    Вы не можете голосовать в опросах
    Вы не можете прикреплять файлы к сообщениям
    Вы можете скачивать файлы