2 сезон

iTunes

1 сезон

1

iTunes

iTunes

iTunes

1 сезон

RePack

30

ИГРА 18+

pack

ВАЖНО

!!Акция!!

Alien_RageХит недели

RePack

MK11
pack

Забери бонус

RePack

jed

!!Акция!!

Alien_Rage

RePack

fifa19

RePack

Assassins Creed: Odyssey

RePack

NEED FOR SPEED™ PAYBACK

4 сезон

9 сезон

Бесстыжие 9 сезон

Все сериалы

все сериалы на PB.wtf

RePack

FAR CRY 5
  

Счастливчик / The Lucky One (Скотт Хикс) [2012 г., драма, мелодрама, BDRip 720p, DUB + Оригинал] pb.wtf

Счастливчик через торрент pb.wtf

Размер: 4.46 GB | Добавлен: 8 лет 2 мес. назад | Торрент скачан:207 раз
Скачать  

24-08-2012 10:52 Счастливчик Скачать торрент  

Счастливчик / The Lucky One
Год выпуска: 2012
Страна: США
Жанр: драма, мелодрама
Продолжительность: 01:40:53
Перевод: Дубляж + Оригинал
Субтитры: : English
Режиссер: Скотт Хикс
В ролях: Зак Эфрон, Тейлор Шиллинг, Блайт Даннер, Райли Стюарт, Джей Р. Фергюсон, Адам ЛеФевр, Роберт Хэйес, Джо Крест, Расселл Дархэм Комегис, Шарон Моррис
Описание: Морской пехотинец Логан Тибо сумел остаться в живых после трех военных миссий в Ираке. Своим талисманом он считает фото, которое всегда носит с собой — на нем совершенно незнакомая ему женщина. По возвращении в Северную Каролину Тибо решает разыскать ее


Качество: BDRip 720p
Формат: MKV
Видео кодек: AVC
Аудио кодек: AC3,DTS
Видео: 4 692 kb/s, 1280x536, 23.976 fps
Аудио#1: Russian: AC3, 128 kb/s (2 ch)
Аудио#2: English: DTS, 1510 kb/s (6 ch)






D:\Беломорканал - Belomorkanal\Shastlivchik\Shastlivchik.2012.BDRip.720p.mkv
General
Unique ID : 225117709308080949013015526314311168738 (0xA95C17FF2308D1BDB86844AA386432E2)
Complete name : D:\Беломорканал - Belomorkanal\Shastlivchik\Shastlivchik.2012.BDRip.720p.mkv
Format : Matroska
Format version : Version 2
File size : 4.46 GiB
Duration : 1h 40mn
Overall bit rate : 6 327 Kbps
Encoded date : UTC 2012-08-23 19:49:31
Writing application : mkvmerge v5.7.0 ('The Whirlwind') built on Jul 8 2012 20:08:51
Writing library : libebml v1.2.3 + libmatroska v1.3.0
Video #1
ID : 1
Format : AVC
Format/Info : Advanced Video Codec
Format profile : High@L4.1
Format settings, CABAC : Yes
Format settings, ReFrames : 5 frames
Muxing mode : Header stripping
Codec ID : V_MPEG4/ISO/AVC
Duration : 1h 40mn
Bit rate : 4 692 Kbps
Width : 1 280 pixels
Height : 536 pixels
Display aspect ratio : 2.40:1
Frame rate : 23.976 fps
Color space : YUV
Chroma subsampling : 4:2:0
Bit depth : 8 bits
Scan type : Progressive
Bits/(Pixel*Frame) : 0.285
Stream size : 3.22 GiB (72%)
Writing library : x264 core 125 r2208 d9d2288
Encoding settings : cabac=1 / ref=5 / deblock=1:0:0 / analyse=0x3:0x113 / me=umh / subme=8 / psy=1 / psy_rd=1.00:0.00 / mixed_ref=1 / me_range=16 / chroma_me=1 / trellis=1 / 8x8dct=1 / cqm=0 / deadzone=21,11 / fast_pskip=1 / chroma_qp_offset=-2 / threads=12 / lookahead_threads=2 / sliced_threads=0 / nr=0 / decimate=1 / interlaced=0 / bluray_compat=0 / constrained_intra=0 / bframes=3 / b_pyramid=2 / b_adapt=2 / b_bias=0 / direct=3 / weightb=1 / open_gop=0 / weightp=2 / keyint=240 / keyint_min=24 / scenecut=40 / intra_refresh=0 / rc_lookahead=50 / rc=2pass / mbtree=1 / bitrate=4692 / ratetol=1.0 / qcomp=0.60 / qpmin=0 / qpmax=69 / qpstep=4 / cplxblur=20.0 / qblur=0.5 / ip_ratio=1.40 / aq=1:1.00
Language : English
Default : Yes
Forced : No
Audio #2
ID : 2
Format : AC-3
Format/Info : Audio Coding 3
Mode extension : CM (complete main)
Format settings, Endianness : Big
Muxing mode : Header stripping
Codec ID : A_AC3
Duration : 1h 40mn
Bit rate mode : Constant
Bit rate : 128 Kbps
Channel(s) : 2 channels
Channel positions : Front: L R
Sampling rate : 48.0 KHz
Bit depth : 16 bits
Compression mode : Lossy
Stream size : 92.4 MiB (2%)
Language : Russian
Default : Yes
Forced : Yes
Audio #3
ID : 3
Format : DTS
Format/Info : Digital Theater Systems
Muxing mode : Header stripping
Codec ID : A_DTS
Duration : 1h 40mn
Bit rate mode : Constant
Bit rate : 1 510 Kbps
Channel(s) : 6 channels
Channel positions : Front: L C R, Side: L R, LFE
Sampling rate : 48.0 KHz
Bit depth : 24 bits
Compression mode : Lossy
Stream size : 1.06 GiB (24%)
Language : English
Default : No
Forced : No
Text #4
ID : 4
Format : UTF-8
Codec ID : S_TEXT/UTF8
Codec ID/Info : UTF-8 Plain Text
Language : English
Default : No
Forced : No

pb.wtf



Скачать Счастливчик через торрент http://i41.fastpic.ru/big/2012/0824/50/05ea32e8cfadd7f510c4a1736f792a50.jpg Скачать фильм Счастливчик через торрент бесплантно в хорошем качестве Описание: Морской пехотинец Логан Тибо сумел остаться в живых после трех военных миссий в Ираке. Своим талисманом он считает фото, которое ... 5 10 1
Info! Золотая раздача, скачанное не засчитывается.
Торрент: Зарегистрирован [2012-08-24 10:52] · скачан: 207 раз
Статус: √ проверено
Размер: 4.46 GB
Как cкачать? Как скачать Счастливчик через торрент | qTorrent

% Раздел Тема Автор DL S | L
Фильмы (Blu-ray, BD-Remux, HDDVD) [ 15.67 GB ] Счастливчик / The Lucky One [2012 BDRemux DUB + Оригинал] AlexKa Скачать
1 | 0
Фильмы 2012 [ 3.97 GB ] Счастливчик / The Lucky One [2012 BDRip-AVC] DUB Ворон Скачать
1 | 0
Фильмы 2012 [ 2.18 GB ] Счастливчик / The Lucky One [2012 DVDRip-AVC MVO лицензия] МАКС1 Скачать
1 | 0
Фильмы [HD 720p, 1080p] (Хороший звук DUB, MVO) [ 6.9 GB ] Счастливчик / The Lucky One [2011 BDRip 720p лицензия] Ke$h@ Скачать
1 | 0
Фильмы (DVD фильмы) [ 5.02 GB ] Счастливчик / The Lucky One [2012 DVD9] R5 voovaz Скачать
1 | 0
Фильмы 2012 [ 1.45 GB ] Счастливчик / The Lucky One [2012 HDRip DUB ] Twi7ter Скачать
1 | 0
Фильмы [HD 720p, 1080p] (Хороший звук DUB, MVO) [ 10.29 GB ] Счастливчик / The Lucky One [2012 BDRip 1080p DUB + Оригинал] AlexKa Скачать
1 | 0

28-11-2019 20:33  

Отключить всю рекламу на сайте

25-08-2012 14:25 Счастливчик Скачать торрент  

Спасибо за фильмpb.wtf



    Дорогой пользователь! Огромная просьба, поблагодарите релизера, оцените раздачу и оставьте свои комментарий, если Вы скачали Счастливчик через торрент бесплатно! Внесите свою лепту в развитие PiratBit!
    Комментировать посты могут только пользователи прошедшие не сложную регистрацию
    Показать сообщения:    

    Счастливчик через торрент
    Скачать бесплатно Счастливчик
    Счастливчик скачать торрент
    Счастливчик смотреть онлайн
    Cкачать фильм Счастливчик бесплатно
    Счастливчик скачать торрент в хорошем качестве
    Счастливчик смотреть онлайн бесплатно в хорошем качестве


    Вы не можете начинать темы
    Вы не можете отвечать на сообщения
    Вы не можете редактировать свои сообщения
    Вы не можете удалять свои сообщения
    Вы не можете голосовать в опросах
    Вы не можете прикреплять файлы к сообщениям
    Вы можете скачивать файлы