Ссылка на приватное зеркало нашего сайта всего за 1$. Внимание количество ограничено!!!

2 сезон

iTunes

1 сезон

1

iTunes

iTunes

iTunes

1 сезон

RePack

30

ИГРА 18+

pack

ВАЖНО

!!Акция!!

Alien_RageХит недели

RePack

MK11
pack

Забери бонус

RePack

jed

!!Акция!!

Alien_Rage

RePack

fifa19

RePack

Assassins Creed: Odyssey

RePack

NEED FOR SPEED™ PAYBACK

4 сезон

9 сезон

Бесстыжие 9 сезон

Все сериалы

все сериалы на PB.wtf

RePack

FAR CRY 5
  

Затмение / 380.000 Volt - Der große Stromausfall / Blackout (Себастьян Вигг) [2010 г., боевик, SATRip, MVO] pb.wtf

Затмение через торрент pb.wtf

Размер: 1.32 GB | Добавлен: 8 лет 2 мес. назад | Торрент скачан:35 раз
Скачать  

24-08-2012 11:44 Затмение Скачать торрент  

Затмение / 380.000 Volt - Der große Stromausfall / Blackout

Год выпуска: 2010
Страна: Германия
Жанр: боевик
Продолжительность: 01:31:40
Перевод: Профессиональный многоголосый

Режиссер: Себастьян Вигг
Продюссер: Корнелия Попп, Robin von der Leyen, Фридрих Вильдфойер
Сценарий: Тимо Берндт, Кристоф Дарнштэдт

Премьера в мире: 6 октября 2010



В ролях: Анн-Катрин Крамер, Тобиаш Ортел, Рольф Канис, Майкл Лотт, Флориан Бартоломей, Гуидо Брошайт, Штефан Юргенс

Описание: В холодную зимнюю ночь в одном из районов Берлина неожиданно начинаются перебои с электричеством. Работающая на подстанции инженер Аня Радке обеспокоена внезапными перепадами напряжения. Она отправляет электриков Волански и Фабека для проверки трансформаторной подстанции. Тем временем проблемы с электричеством возникают и в других районах города. Фабек и Волански прибывают на подстанцию и обнаруживают причину перепадов напряжения, но один из трансформаторов взрывается, и Фабек погибает на месте. Услышав о трагедии, Аня поначалу думает, что причиной всему стал неисправный трансформатор, однако разговор с Волански наводит её на мысль, что кто-то намеренно отключил систему управления. Кажется, проблема решена, и на подстанции включается электричество, как вдруг весь город остаётся без света. В Берлине начинается паника...

Качество: SATRip
Формат: AVI
Видео кодек: XviD
Аудио кодек: MP3
Видео: XviD, 704x400, 1921 kbps, 25.000 fps
Аудио#1: MP3 , 2(ch), 128 kbps, 48.0 KHz
General
Complete name : G:\Торрент фильмы\380.000 Volt.avi
Format : AVI
Format/Info : Audio Video Interleave
File size : 1.32 GiB
Duration : 1h 31mn
Overall bit rate : 2 059 Kbps
Writing application : VirtualDubMod 1.5.10.2 (build 2540/release)
Writing library : VirtualDubMod build 2540/release

Video
ID : 0
Format : MPEG-4 Visual
Format profile : Advanced Simple@L5
Format settings, BVOP : Yes
Format settings, QPel : No
Format settings, GMC : No warppoints
Format settings, Matrix : Default (H.263)
Muxing mode : Packed bitstream
Codec ID : XVID
Codec ID/Hint : XviD
Duration : 1h 31mn
Bit rate : 1 921 Kbps
Width : 704 pixels
Height : 400 pixels
Display aspect ratio : 16:9
Frame rate : 25.000 fps
Resolution : 8 bits
Colorimetry : 4:2:0
Scan type : Progressive
Bits/(Pixel*Frame) : 0.273
Stream size : 1.23 GiB (93%)
Writing library : XviD 58

Audio
ID : 1
Format : MPEG Audio
Format version : Version 1
Format profile : Layer 3
Mode : Joint stereo
Codec ID : 55
Codec ID/Hint : MP3
Duration : 1h 31mn
Bit rate mode : Constant
Bit rate : 128 Kbps
Channel(s) : 2 channels
Sampling rate : 48.0 KHz
Stream size : 83.9 MiB (6%)
Alignment : Aligned on interleaves
Interleave, duration : 40 ms (1.00 video frame)
Interleave, preload duration : 504 ms

pb.wtf



Скачать Затмение через торрент http://i42.fastpic.ru/big/2012/0824/e5/e84637dea22153c2ef8a52a400815de5.jpg Скачать фильм Затмение через торрент бесплантно в хорошем качестве Описание: В холодную зимнюю ночь в одном из районов Берлина неожиданно начинаются перебои с электричеством. Работающая на подстанции ... 10 10 1
Info! Золотая раздача, скачанное не засчитывается.
Торрент: Зарегистрирован [2012-08-24 11:44] · скачан: 35 раз
Статус: √ проверено
Размер: 1.32 GB
Как cкачать? Как скачать Затмение через торрент | qTorrent

28-11-2019 20:33  

Отключить всю рекламу на сайте

    Дорогой пользователь! Огромная просьба, поблагодарите релизера, оцените раздачу и оставьте свои комментарий, если Вы скачали Затмение через торрент бесплатно! Внесите свою лепту в развитие PiratBit!
    Комментировать посты могут только пользователи прошедшие не сложную регистрацию
    Показать сообщения:    

    Затмение через торрент
    Скачать бесплатно Затмение
    Затмение скачать торрент
    Затмение смотреть онлайн
    Cкачать фильм Затмение бесплатно
    Затмение скачать торрент в хорошем качестве
    Затмение смотреть онлайн бесплатно в хорошем качестве


    Вы не можете начинать темы
    Вы не можете отвечать на сообщения
    Вы не можете редактировать свои сообщения
    Вы не можете удалять свои сообщения
    Вы не можете голосовать в опросах
    Вы не можете прикреплять файлы к сообщениям
    Вы можете скачивать файлы