MEGA SALE -50% FORZA HORIZON 4 ULTIMATE+ВСЕ DLC+ОНЛАЙН всего за 599р. 299 руб. (супер цена). Внимание количество ограничено!!!

iTunes

1+1

iTunes

мы

iTunes

1

iTunes

Чернобыль

iTunes

Ральф против интернета

Лицензия

ПШазам

Лицензия

Игра престолов

Лицензия

30
pack

ВАЖНО

!!Акция!!

Alien_RageХит недели

RePack

Resident Evil 21

ИГРА 18+

pack

RePack

Metro:Exodus

!!Акция!!

Alien_Rage

RePack

fifa19

RePack

Assassins Creed: Odyssey

RePack

NEED FOR SPEED™ PAYBACK

3 сезон

9 сезон

Бесстыжие 9 сезон

Все сериалы

все сериалы на PB.wtf

RePack

FAR CRY 5
Ребята, катастрофически не хватает 7730р. для оплаты серверов за ИЮЛЬ (всвязи с блокировками трафик упал в 3 раза), 1-2р., выручайте.
  

Информатор! / The Informant! (Стивен Содерберг) [2009 г., триллер, драма, комедия, BDRip, MVO, лицензия] pb.wtf

Информатор! через торрент pb.wtf

Размер: 1.36 GB | Добавлен: 7 лет назад | Торрент скачан:100 раз
Скачать  

24-08-2012 12:56 Информатор! Скачать торрент  

Информатор! / The Informant!
«Основано на сплетнях»
Год выпуска: 2009
Страна: США
Жанр: триллер, драма, комедия
Продолжительность: 01:48:15
Перевод: Профессиональный многоголосый, Лицензия

Режиссер: Стивен Содерберг
Продюссер: Ховард Браунштейн, Курт Эйченвальд, Дженнифер Фокс
Сценарий: Скотт Бёрнс, Курт Эйченвальд

Премьера в мире: 7 сентября 2009



В ролях: Мэтт Дэймон, Лукас МакХью Кэролл, Эдди Джемисон, Расти Швиммер, Крэйг Риччи Шейнак, Том Папа, Рик Овертон, Мелани Лински, Томас Ф. Уилсон, Скотт Бакула

Описание: И о чем только думал Марк Уитакер? Будучи перспективным сотрудником агропромышленной корпорации «Арчер Дэниелс Мидланд» (АДМ), Уитакер неожиданно превращается в стукача.
Несмотря на то, что Уитакер докладывает ФБР о том, что мультинациональная компания, в которой он трудится, искусственно поддерживает слишком высокие цены на продукцию, сам себя он считает чуть ли не героем, заботящимся об интересах простых граждан и достойным повышения. Но для того, чтобы воплотить его мечты в жизнь, ФБР нужны доказательства, вот почему Уитакер с радостью соглашается надеть на себя специальную подслушивающую аппаратуру, а в кейс спрятать магнитофон, воображая себя своеобразным спецагентом, выполняющим сверхсекретное задание.

Качество: BDRip
Формат: AVI
Видео кодек: XviD
Аудио кодек: AC3
Видео: XviD, 720x400, 1412 kbps, 0.204 bit/pixel, 23.976 fps
Аудио#1: 48 kHz, AC3 5/1. 6 ch, 384.00 kbps
General
Complete name : G:\Торрент фильмы\Informator.2009.P.avi
Format : AVI
Format/Info : Audio Video Interleave
File size : 1.36 GiB
Duration : 1h 48mn
Overall bit rate : 1 805 Kbps
Movie name : Informator (2009)
Writing application : VirtualDubMod 1.5.4.1 (build 2178/release)

Video
ID : 0
Format : MPEG-4 Visual
Format profile : Advanced Simple@L5
Format settings, BVOP : Yes
Format settings, QPel : No
Format settings, GMC : No warppoints
Format settings, Matrix : Custom
Codec ID : XVID
Codec ID/Hint : XviD
Duration : 1h 48mn
Bit rate : 1 412 Kbps
Width : 720 pixels
Height : 400 pixels
Display aspect ratio : 16:9
Frame rate : 23.976 fps
Resolution : 8 bits
Colorimetry : 4:2:0
Scan type : Progressive
Bits/(Pixel*Frame) : 0.204
Stream size : 1.07 GiB (78%)
Writing library : XviD 1.2.1 (UTC 2008-12-04)

Audio
ID : 1
Format : AC-3
Format/Info : Audio Coding 3
Codec ID : 2000
Duration : 1h 48mn
Bit rate mode : Constant
Bit rate : 384 Kbps
Channel(s) : 6 channels
Channel positions : Front: L C R, Surround: L R, LFE
Sampling rate : 48.0 KHz
Stream size : 297 MiB (21%)
Alignment : Split accross interleaves
Interleave, duration : 42 ms (1.00 video frame)
Interleave, preload duration : 500 ms

pb.wtf



Скачать Информатор! через торрент http://i40.fastpic.ru/big/2012/0824/64/57ab1518f197107ad723413dbe79ee64.jpg Скачать фильм Информатор! через торрент бесплантно в хорошем качестве Описание: И о чем только думал Марк Уитакер? Будучи перспективным сотрудником агропромышленной корпорации «Арчер Дэниелс Мидланд» (АДМ), ... 5 10 1
Info! Золотая раздача, скачанное не засчитывается.
Торрент: Зарегистрирован [2012-08-24 12:56] · скачан: 100 раз
Статус: √ проверено
Размер: 1.36 GB
Как cкачать? Как скачать Информатор! через торрент | qTorrent

% Раздел Тема Автор DL S | L
Фильмы 2006-2008 [ 1.45 GB ] Информаторы / The Informers [2008 BDRip MVO лицензия] maygli Скачать
1 | 0
Фильмы [HD 720p, 1080p] (Хороший звук DUB, MVO) [ 4.66 GB ] Информатор! / The Informant! [2009 BDRip ] timsons17 Скачать
1 | 0
Фильмы 2009 [ 701 MB ] Информаторы / The Informers [2009 BDRip Лицензие] serega_777 Скачать
1 | 0
Фильмы (DVD фильмы) [ 4.29 GB ] Информаторы / The Informers [2008 Германия DVD5] R5 «West Video» voovaz Скачать
1 | 0
Фильмы [HD 720p, 1080p] (Хороший звук DUB, MVO) [ 4.62 GB ] Информаторы / Informers The [2008 BDRip ] Shmel Скачать
1 | 0
Фильмы 2006-2008 [ 1.37 GB ] Информаторы / The Informers [2008 HDRip лицензия] SD Скачать
1 | 0
Фильмы [HD 720p, 1080p] (Хороший звук DUB, MVO) [ 8.58 GB ] Информаторы / The Informers [2008 BDRip1080] Jasti Скачать
1 | 0


>> Регистрируемся здесь <<






Отзывы и комментарии о схеме читаем и пишем здесь: ---> Отзывы и комментарии о схеме

Новые благодарочки в телеграм довольных пользователей:
скриншот   скриншот   скриншот   скриншот   скриншот

30-08-2012 17:47 Информатор! Скачать торрент  

Вот так нас и разводят как кроликовpb.wtf



    Дорогой пользователь! Огромная просьба, поблагодарите релизера, оцените раздачу и оставьте свои комментарий, если Вы скачали Информатор! через торрент бесплатно! Внесите свою лепту в развитие PiratBit!
    Комментировать посты могут только пользователи прошедшие не сложную регистрацию
    Показать сообщения:    

    Информатор! через торрент
    Скачать бесплатно Информатор!
    Информатор! скачать торрент
    Информатор! смотреть онлайн
    Cкачать фильм Информатор! бесплатно
    Информатор! скачать торрент в хорошем качестве
    Информатор! смотреть онлайн бесплатно в хорошем качестве


    Вы не можете начинать темы
    Вы не можете отвечать на сообщения
    Вы не можете редактировать свои сообщения
    Вы не можете удалять свои сообщения
    Вы не можете голосовать в опросах
    Вы не можете прикреплять файлы к сообщениям
    Вы можете скачивать файлы