Всегда рабочее зеркало без VPN и Proxy просто перед .vidak.icu напиши любое слово или цифру, Пример http://xecc.vidak.icu

Лицензия

MVO

1 сезон

1

1 сезон

iTunes

1 сезон

13

1 сезон

Deluxe

pack

Рекомендуем

Repack

30

ВАЖНО

RePack

MK11

RePack

jed

RePack

fifa19

RePack

RDR2

RePack

NEED FOR SPEED™ PAYBACK

Кинопоиск HD

6 сезон

 Острые козырьки 6 сезон

Все сериалы

все сериалы на PB.wtf

RePack

FAR CRY 5
  
Magnet ссылка

Свадебный разгром / A Few Best Men (Стефан Эллиотт) [2011 г., комедия, BDRip, DUB, лицензия] pb.wtf

Свадебный разгром через торрент pb.wtf

Размер: 1.46 GB | Добавлен: 9 лет назад | Торрент скачан:297 раз
Смотреть онлайн Свадебный разгром | Скачать    Ребята, помогите собрать деньги на оплату серверов!!!

24-08-2012 16:01 Свадебный разгром Скачать торрент  

Свадебный разгром / A Few Best Men
«Этот мальчишник вам не по зубам!»
Год выпуска: 2011
Страна: Австралия, Великобритания, США
Жанр: комедия
Продолжительность: 01:36:32
Перевод: Дубляж, Лицензия

Режиссер: Стефан Эллиотт
Продюссер: Антония Барнард, Гари Хэмилтон, Лоуренс Малкин
Сценарий: Дин Крэйг

Бюджет: AUD 14 000 000
Премьера в мире: 14 октября 2011



В ролях: Завьер Сэмюэл, Крис Маршалл, Кевин Бишоп, Тим Драксл, Лаура Брент, Ребел Уилсон, Оливия Ньютон-Джон, Джонатан Биггинс, Стив Ле Маркванд, Дэвид Салливан

Описание: Как празднуют свадьбу в Австралии? Да круче, чем новый год в России. Шикарная церемония, море алкоголя и тройка верных друзей, решивших оторваться на полную катушку. Сможет ли настоящая любовь пережить эти испытания?

Качество: BDRip
Формат: AVI
Видео кодек: XviD
Аудио кодек: AC3
Видео: XviD, 720x304 (2.35:1), 23.976 fps, 1704 kbps
Аудио#1: 48 kHz, AC3 Dolby Digital, 3/2 (L,C,R,l,r) + LFE ch, 448 kbps
General
Complete name : G:\Торрент фильмы\A.Few.Best.Men.2011.DUB.RUS BD.XviD.AC3.BDRip._by.ZNG505_.avi
Format : AVI
Format/Info : Audio Video Interleave
File size : 1.46 GiB
Duration : 1h 36mn
Overall bit rate : 2 161 Kbps
Writing application : VirtualDubModRus 1.5.10.2 (build 2542/release)
Writing library : VirtualDubMod build 2542/release

Video
ID : 0
Format : MPEG-4 Visual
Format profile : Advanced [email protected]
Format settings, BVOP : Yes
Format settings, QPel : No
Format settings, GMC : No warppoints
Format settings, Matrix : Custom
Codec ID : XVID
Codec ID/Hint : XviD
Duration : 1h 36mn
Bit rate : 1 704 Kbps
Width : 720 pixels
Height : 304 pixels
Display aspect ratio : 2.35:1
Frame rate : 23.976 fps
Resolution : 8 bits
Colorimetry : 4:2:0
Scan type : Progressive
Bits/(Pixel*Frame) : 0.325
Stream size : 1.15 GiB (79%)
Writing library : XviD 65

Audio
ID : 1
Format : AC-3
Format/Info : Audio Coding 3
Codec ID : 2000
Duration : 1h 36mn
Bit rate mode : Constant
Bit rate : 448 Kbps
Channel(s) : 6 channels
Channel positions : Front: L C R, Surround: L R, LFE
Sampling rate : 48.0 KHz
Stream size : 310 MiB (21%)
Alignment : Split accross interleaves
Interleave, duration : 42 ms (1.00 video frame)
Interleave, preload duration : 500 ms
Title : Rus DUB

pb.wtf



Скачать Свадебный разгром через торрент http://i43.fastpic.ru/big/2012/0824/51/e58f6bd603d0faaa5832aef3f4401f51.jpg Скачать, смотреть онлайн Свадебный разгром бесплантно в хорошем качестве Описание: Как празднуют свадьбу в Австралии? Да круче, чем новый год в России. Шикарная церемония, море алкоголя и тройка верных друзей, ... 10 10 4
Info! Золотая раздача, скачанное не засчитывается.
Торрент: Зарегистрирован [2012-08-24 16:01] · скачан: 297 раз
Статус: √ проверено
Размер: 1.46 GB
Как cкачать? Как скачать Свадебный разгром через торрент | UTorrent

% Раздел Тема Автор DL S | L
Фильмы 2011 [ 2.18 GB ] Свадебный разгром / A Few Best Men [2011 BDRip-AVC] DUB + Original + Sub potroks Скачать
1 | 0
Фильмы 2011 [ 2.05 GB ] Свадебный разгром / A Few Best Men [2011 Австралия HDRip] DUB + Original Eng Mr. Freeman Скачать
1 | 0
Фильмы (DVD фильмы) [ 6.93 GB ] Свадебный разгром / A Few Best Men [2011 DVD9] R5 voovaz Скачать
1 | 0
Фильмы 2011 [ 691 MB ] Свадебный разгром / A Few Best Men [2011 HDRip DUB ] Newton5 Скачать
1 | 0
Фильмы [HD 720p, 1080p] (Хороший звук DUB, MVO) [ 7.78 GB ] Свадебный разгром / A Few Best Men [2011 BDRip DUB ] DEVI Скачать
1 | 0
Фильмы [HD 720p, 1080p] (Хороший звук DUB, MVO) [ 4.67 GB ] Свадебный разгром / A Few Best Men [2011 BDRip DUB ] ~Relizer~ Скачать
1 | 0
Фильмы 2011 [ 967 MB ] Свадебный разгром / A Few Best Men [2011 BDRip-AVC] DUB slaventi-69 Скачать
1 | 0

28-11-2019 20:33  

Отключить вcю реклaмy на сайте

24-08-2012 16:29 Свадебный разгром Скачать торрент  

    Дорогой пользователь! Огромная просьба, поблагодарите релизера, оцените раздачу и оставьте свои комментарий, если Вы скачали Свадебный разгром через торрент бесплатно!
    Комментировать посты могут только пользователи прошедшие не сложную регистрацию
    Показать сообщения:    

    Свадебный разгром через торрент
    Скачать бесплатно Свадебный разгром
    Свадебный разгром скачать торрент
    Свадебный разгром смотреть онлайн
    Cкачать фильм Свадебный разгром бесплатно
    Свадебный разгром скачать торрент в хорошем качестве
    Свадебный разгром смотреть онлайн бесплатно в хорошем качестве


    Вы не можете начинать темы
    Вы не можете отвечать на сообщения
    Вы не можете редактировать свои сообщения
    Вы не можете удалять свои сообщения
    Вы не можете голосовать в опросах
    Вы не можете прикреплять файлы к сообщениям
    Вы можете скачивать файлы