новый адрес
Ссылка на приватное зеркало всего за 1$. Внимание количество ограничено!!!

iTunes

1+1

iTunes

мы

WEB-DL

1

iTunes

Чернобыль

iTunes

Ральф против интернета

Лицензия

ПШазам

Лицензия

Оно 2

Лицензия

30
pack

Вам бонус

ВАЖНО

!!Акция!!

Alien_RageХит недели

RePack

Resident Evil 21

ИГРА 18+

pack

RePack

jed

!!Акция!!

Alien_Rage

RePack

fifa19

RePack

Assassins Creed: Odyssey

RePack

NEED FOR SPEED™ PAYBACK

3 сезон

9 сезон

Бесстыжие 9 сезон

Все сериалы

все сериалы на PB.wtf

RePack

FAR CRY 5
Ребята, катастрофически не хватает 1900р. для оплаты серверов за Октябрь (всвязи с блокировками трафик упал в 3 раза), 1-2р., выручайте.
  

Однажды в Анатолии / Bir zamanlar Anadolu'da / Once Upon a Time in Anatolia (Нури Бильге Джейлан) [2011 г., драма, криминал, HDRip, MVO] pb.wtf

Однажды в Анатолии через торрент pb.wtf

Размер: 2.05 GB | Добавлен: 7 лет 3 мес. назад | Торрент скачан:70 раз
Скачать  

24-08-2012 17:32 Однажды в Анатолии Скачать торрент  

Однажды в Анатолии / Bir zamanlar Anadolu'da / Once Upon a Time in Anatolia

Год выпуска: 2011
Страна: Босния-Герцеговина, Турция
Жанр: драма, криминал
Продолжительность: 02:31:07
Перевод: Профессиональный многоголосый

Режиссер: Нури Бильге Джейлан
Продюссер: Зейнеп Озбатур, Эда Арикан
Сценарий: Эбру Сейлан, Нури Бильге Джейлан, Эрсан Кесал

Премьера в мире: 21 мая 2011



В ролях: Мухаммет Узунер, Йилмаз Эрдоган, Танер Бирсель, Ахмет Мумтаз Тайлан, Фират Таниш, Эркан Кесаль, Эроль Эрарслан, Мурат Кылыч, Шафак Карали, Угур Асланоглу

Описание: Жизнь в маленьком провинциальном городке похожа на долгое путешествие по степным просторам: ждешь, что за следующим холмом откроется что-то новое, другое, а видишь только те же самые степные дороги, похожие друг на друга, одинаково бесконечно тянущиеся к горизонту…

Качество: HDRip
Формат: AVI
Видео кодек: XviD
Аудио кодек: AC3
Видео: XviD, 1482 Kbps, 720x304, 25.000 fps
Аудио#1: Russian: 48 kHz, AC3, 6 ch, 448 kbps
General
Complete name : G:\Торрент фильмы\Odnazhdy.v.Anatolii.2011.XviD.HDRip-ed_rez.avi
Format : AVI
Format/Info : Audio Video Interleave
Format profile : OpenDML
File size : 2.05 GiB
Duration : 2h 31mn
Overall bit rate : 1 943 Kbps
Movie name : Bir zamanlar Anadolu'da / 2011
Director : ed_rez
Writing application : VirtualDubMod 1.5.10.2 (build 2540/release)

Video
ID : 0
Format : MPEG-4 Visual
Format profile : Advanced Simple@L5
Format settings, BVOP : Yes
Format settings, QPel : No
Format settings, GMC : No warppoints
Format settings, Matrix : Custom
Muxing mode : Packed bitstream
Codec ID : XVID
Codec ID/Hint : XviD
Duration : 2h 31mn
Bit rate : 1 482 Kbps
Width : 720 pixels
Height : 304 pixels
Display aspect ratio : 2.35:1
Frame rate : 25.000 fps
Resolution : 8 bits
Colorimetry : 4:2:0
Scan type : Progressive
Bits/(Pixel*Frame) : 0.271
Stream size : 1.56 GiB (76%)
Writing library : XviD 1.2.1 (UTC 2008-12-04)

Audio
ID : 1
Format : AC-3
Format/Info : Audio Coding 3
Codec ID : 2000
Duration : 2h 31mn
Bit rate mode : Constant
Bit rate : 448 Kbps
Channel(s) : 6 channels
Channel positions : Front: L C R, Surround: L R, LFE
Sampling rate : 48.0 KHz
Stream size : 484 MiB (23%)
Alignment : Split accross interleaves
Interleave, duration : 40 ms (1.00 video frame)
Interleave, preload duration : 500 ms

pb.wtf



Скачать Однажды в Анатолии через торрент http://i43.fastpic.ru/big/2012/0824/23/ff28060be05d7a15e627ac9c1e2ede23.jpg Скачать фильм Однажды в Анатолии через торрент бесплантно в хорошем качестве Описание: Жизнь в маленьком провинциальном городке похожа на долгое путешествие по степным просторам: ждешь, что за следующим холмом ... 5 10 1
Info! Золотая раздача, скачанное не засчитывается.
Торрент: Зарегистрирован [2012-08-24 17:32] · скачан: 70 раз
Статус: √ проверено
Размер: 2.05 GB
Как cкачать? Как скачать Однажды в Анатолии через торрент | qTorrent

28-11-2019 20:33  

Отключить всю рекламу на сайте

    Дорогой пользователь! Огромная просьба, поблагодарите релизера, оцените раздачу и оставьте свои комментарий, если Вы скачали Однажды в Анатолии через торрент бесплатно! Внесите свою лепту в развитие PiratBit!
    Комментировать посты могут только пользователи прошедшие не сложную регистрацию
    Показать сообщения:    

    Однажды в Анатолии через торрент
    Скачать бесплатно Однажды в Анатолии
    Однажды в Анатолии скачать торрент
    Однажды в Анатолии смотреть онлайн
    Cкачать фильм Однажды в Анатолии бесплатно
    Однажды в Анатолии скачать торрент в хорошем качестве
    Однажды в Анатолии смотреть онлайн бесплатно в хорошем качестве


    Вы не можете начинать темы
    Вы не можете отвечать на сообщения
    Вы не можете редактировать свои сообщения
    Вы не можете удалять свои сообщения
    Вы не можете голосовать в опросах
    Вы не можете прикреплять файлы к сообщениям
    Вы можете скачивать файлы