Ссылка на приватное зеркало нашего сайта всего за 1$. Внимание количество ограничено!!!

2 сезон

iTunes

1 сезон

1

iTunes

iTunes

iTunes

1 сезон

RePack

30

ИГРА 18+

pack

ВАЖНО

!!Акция!!

Alien_RageХит недели

RePack

MK11
pack

Забери бонус

RePack

jed

!!Акция!!

Alien_Rage

RePack

fifa19

RePack

Assassins Creed: Odyssey

RePack

NEED FOR SPEED™ PAYBACK

4 сезон

9 сезон

Бесстыжие 9 сезон

Все сериалы

все сериалы на PB.wtf

RePack

FAR CRY 5
  

Последний Боец Шаолиня / Last Kung Fu Monk (Пенг Чжан Ли) [2010 г., боевик, драма, комедия, приключения, DVDRip, MVO, лицензия] pb.wtf

Последний Боец Шаолиня через торрент pb.wtf

Размер: 1.37 GB | Добавлен: 8 лет 2 мес. назад | Торрент скачан:523 раза
Скачать  

25-08-2012 08:29 Последний Боец Шаолиня Скачать торрент  

Последний Боец Шаолиня / Last Kung Fu Monk

Год выпуска: 2010
Страна: США
Жанр: боевик, драма, комедия, приключения
Продолжительность: 01:29:09
Перевод: Профессиональный многоголосый, Лицензия

Режиссер: Пенг Чжан Ли

В ролях: Синди Карино, Роберт Кристи, Мэтт Хэрлан Коэн, Ширли Корпуз, Мажор Курда, Иветт Смит, Кристен Догерти, Иван Эскотт, Сарах Фаша, Майк Фолкнер

Описание: Мастер боевых искусств, Ли Лонг переезжает в Нью-Йорке, чтобы позаботиться о сыне погибшего брата. Он открывает школу Кунг-фу, чтобы заработать на жизнь. И очень скоро привлекает к себе внимание мафии. Похитив учеников Ли Лонга, мафиози вынуждают мастера выступить в подземном Бойцовском клубе…

Качество: DVDRip
Формат: AVI
Видео кодек: XviD
Аудио кодек: AC3
Видео: 720x400, 25fps, 1735 kb/s,Бит/(Пиксели*Кадры) : 0.241
Аудио#1: Dolby AC3, 48000Hz, 6ch, 448kbps





Общее
Полное имя : D:\Торенты\Poslednij.boec.SHaolinya.2010.P.DVDRip.avi
Формат : AVI
Формат/Информация : Audio Video Interleave
Размер файла : 1,37 Гбайт
Продолжительность : 1 ч. 29 м.
Общий поток : 2194 Кбит/сек
Программа кодирования : VirtualDubMod 1.5.10.3 | www.virtualdub-fr.org || (build 2550/release)
Библиотека кодирования : VirtualDubMod build 2550/release

Видео
Идентификатор : 0
Формат : MPEG-4 Visual
Профиль формата : Advanced Simple@L5
Параметр BVOP формата : 2
Параметр QPel формата : Нет
Параметр GMC формата : Без точки перехода
Параметр матрицы формата : Выборочная
Идентификатор кодека : XVID
Идентификатор кодека/Подсказка : XviD
Продолжительность : 1 ч. 29 м.
Битрейт : 1736 Кбит/сек
Ширина : 720 пикселей
Высота : 400 пикселей
Соотношение сторон : 16:9
Частота кадров : 25,000 кадров/сек
Цветовое пространство : YUV
Субдискретизация насыщенности : 4:2:0
Битовая глубина : 8 бит
Тип развёртки : Прогрессивная
Метод сжатия : С потерями
Бит/(Пиксели*Кадры) : 0.241
Размер потока : 1,08 Гбайт (79%)
Библиотека кодирования : XviD 1.2.1 (UTC 2008-12-04)

Аудио
Идентификатор : 1
Формат : AC-3
Формат/Информация : Audio Coding 3
Расширение режима : CM (complete main)
Идентификатор кодека : 2000
Продолжительность : 1 ч. 29 м.
Вид битрейта : Постоянный
Битрейт : 448 Кбит/сек
Каналы : 6 каналов
Расположение каналов : Front: L C R, Side: L R, LFE
Частота : 48,0 КГц
Битовая глубина : 16 бит
Метод сжатия : С потерями
Размер потока : 286 Мбайт (20%)
Выравнивание : Разделение по промежуткам
Продолжительность промежутка : 40 мс. (1,00 видеокадр)
Время предзагрузки промежутка : 500 мс.

pb.wtf



Скачать Последний Боец Шаолиня через торрент http://i43.fastpic.ru/big/2012/0824/8d/20dbe48c277b54cd572dcd79132af58d.jpg Скачать фильм Последний Боец Шаолиня через торрент бесплантно в хорошем качестве Описание: Мастер боевых искусств, Ли Лонг переезжает в Нью-Йорке, чтобы позаботиться о сыне погибшего брата. Он открывает школу Кунг-фу, ... 10 10 3
Info! Золотая раздача, скачанное не засчитывается.
Торрент: Зарегистрирован [2012-08-25 08:29] · скачан: 523 раз
Статус: √ проверено
Размер: 1.37 GB
Как cкачать? Как скачать Последний Боец Шаолиня через торрент | qTorrent

% Раздел Тема Автор DL S | L
Фильмы (DVD фильмы) [ 4.26 GB ] Последний боец Шаолиня / Last Kung Fu Monk [2010 DVD5] R5 voovaz Скачать
1 | 0
Фильмы 2010 [ 741 MB ] Последний Боец Шаолиня / Last Kung Fu Monk [2010 DVDRip MVO лицензия] Ворон Скачать
1 | 0


Последний раз редактировалось: Ворон (2012-08-25 18:59), всего редактировалось 1 раз

28-11-2019 20:33  

Отключить всю рекламу на сайте

25-08-2012 16:14 Последний Боец Шаолиня Скачать торрент  

Фильм нудный , , большая часть фильма скучный трындёшь и куча лишней инфы.
Единственный + в фильме это Бой , но и тут есть притензии но уже чисто к самому боевому искуству!!!pb.wtf



25-08-2012 18:12 Последний Боец Шаолиня Скачать торрент  

Переделайте описание фильма, там не Похитив племянника Ли Лонга , а Похитив учеников Ли Лонга!pb.wtf



    Дорогой пользователь! Огромная просьба, поблагодарите релизера, оцените раздачу и оставьте свои комментарий, если Вы скачали Последний Боец Шаолиня через торрент бесплатно! Внесите свою лепту в развитие PiratBit!
    Комментировать посты могут только пользователи прошедшие не сложную регистрацию
    Показать сообщения:    

    Последний Боец Шаолиня через торрент
    Скачать бесплатно Последний Боец Шаолиня
    Последний Боец Шаолиня скачать торрент
    Последний Боец Шаолиня смотреть онлайн
    Cкачать фильм Последний Боец Шаолиня бесплатно
    Последний Боец Шаолиня скачать торрент в хорошем качестве
    Последний Боец Шаолиня смотреть онлайн бесплатно в хорошем качестве


    Вы не можете начинать темы
    Вы не можете отвечать на сообщения
    Вы не можете редактировать свои сообщения
    Вы не можете удалять свои сообщения
    Вы не можете голосовать в опросах
    Вы не можете прикреплять файлы к сообщениям
    Вы можете скачивать файлы