Всегда рабочее зеркало без VPN и Proxy просто перед .vidak.icu напиши любое слово или цифру, Пример http://wddj.vidak.icu

MVO

MVO

1 сезон

1

1 сезон

iTunes

1 сезон

13

1 сезон

Deluxe

pack

Рекомендуем

Repack

30

ВАЖНО

RePack

MK11

RePack

jed

RePack

fifa19

RePack

RDR2

RePack

NEED FOR SPEED™ PAYBACK

Кинопоиск HD

6 сезон

 Острые козырьки 6 сезон

Все сериалы

все сериалы на PB.wtf

RePack

FAR CRY 5
  
Magnet ссылка

Клаустрофобия / Claustrofobia (Бобо Боерманс) [2011 г., триллер, HDRip, VO] pb.wtf

Клаустрофобия через торрент pb.wtf

Размер: 1.46 GB | Добавлен: 9 лет назад | Торрент скачан:59 раз
Смотреть онлайн Клаустрофобия | Скачать    Ребята, помогите собрать деньги на оплату серверов!!!

25-08-2012 10:30 Клаустрофобия Скачать торрент  

Клаустрофобия / Claustrofobia

Год выпуска: 2011
Страна: Нидерланды / Snoooep Entertainment
Жанр: триллер
Продолжительность: 01:30:05
Перевод: Любительский (одноголосый) [xixidok]

Режиссер: Бобо Боерманс

В ролях: Драган Бакема, Элисон Кэрролл, Jappe Claes Эрнст, Деккерс Питер, Фабер Frits, Lambrechts Dennis, Overeem Rogier, Philipoom Harry, van Rijthoven, Nienke Römer.....

Описание: Когда Ева очнулась, то обнаружила себя прикованной к кровати неизвестно где и ей становилось жутко страшно, так как ее страхи становятся реальностью...




Качество: HDRip
Формат: AVI
Видео кодек: XviD
Аудио кодек: AC3
Видео: 720x304 (2.37:1), 25 fps, XviD build 50 ~2113 kbps avg, 0.39 bit/pixel
Аудио: 48 kHz, AC3 Dolby Digital, 2/0 (L,R) ch, ~192 kbps

General
Complete name : F: ClaYstr0f0bia.2011.EVG.L1.HDRip.avi
Format : AVI
Format/Info : Audio Video Interleave
File size : 1.46 GiB
Duration : 1h 30mn
Overall bit rate : 2 316 Kbps
Writing application : VirtualDubMod 1.5.10.2 (build 2540/release)
Writing library : VirtualDubMod build 2540/release
Video #0
ID : 0
Format : MPEG-4 Visual
Format profile : Advanced [email protected]
Format settings, BVOP : 2
Format settings, QPel : No
Format settings, GMC : No warppoints
Format settings, Matrix : Default (MPEG)
Codec ID : XVID
Codec ID/Hint : XviD
Duration : 1h 30mn
Bit rate : 2 114 Kbps
Width : 720 pixels
Height : 304 pixels
Display aspect ratio : 2.35:1
Frame rate : 25.000 fps
Color space : YUV
Chroma subsampling : 4:2:0
Bit depth : 8 bits
Scan type : Progressive
Compression mode : Lossy
Bits/(Pixel*Frame) : 0.386
Stream size : 1.33 GiB (91%)
Writing library : XviD 1.2.1 (UTC 2008-12-04)
Audio #1
ID : 1
Format : AC-3
Format/Info : Audio Coding 3
Mode extension : CM (complete main)
Format settings, Endianness : Big
Codec ID : 2000
Duration : 1h 30mn
Bit rate mode : Constant
Bit rate : 192 Kbps
Channel(s) : 2 channels
Channel positions : Front: L R
Sampling rate : 48.0 KHz
Bit depth : 16 bits
Compression mode : Lossy
Stream size : 124 MiB (8%)
Alignment : Aligned on interleaves
Interleave, duration : 40 ms (1.00 video frame)
Interleave, preload duration : 512 ms) ch, ~192 kbps






pb.wtf



Скачать Клаустрофобия через торрент https://pic1.kartinco.top/images/111/rep2lizxw4.jpg Скачать, смотреть онлайн Клаустрофобия бесплантно в хорошем качестве Описание: Когда Ева очнулась, то обнаружила себя прикованной к кровати неизвестно где и ей становилось жутко страшно, так как ее страхи ... 10 10 1
Info! Золотая раздача, скачанное не засчитывается.
Торрент: Зарегистрирован [2012-08-25 10:30] · скачан: 59 раз
Статус: T временная
Размер: 1.46 GB
Как cкачать? Как скачать Клаустрофобия через торрент | UTorrent



Последний раз редактировалось: Twi7ter (2012-08-25 10:53), всего редактировалось 2 раз(а)

28-11-2019 20:33  

Отключить вcю реклaмy на сайте

25-08-2012 10:47 Клаустрофобия Скачать торрент  

Twi7ter писал(а):

MediaInfo

Не полное MI.
Как получить информацию по видео файлу? pb.wtf



25-08-2012 10:54 Клаустрофобия Скачать торрент  

Vetаl писал(а):

Twi7ter писал(а):

MediaInfo

Не полное MI.
Как получить информацию по видео файлу?

добавил больше!pb.wtf



27-08-2012 11:45 Клаустрофобия Скачать торрент  

"Катакомбы" посмотрите.pb.wtf



    Дорогой пользователь! Огромная просьба, поблагодарите релизера, оцените раздачу и оставьте свои комментарий, если Вы скачали Клаустрофобия через торрент бесплатно!
    Комментировать посты могут только пользователи прошедшие не сложную регистрацию
    Показать сообщения:    

    Клаустрофобия через торрент
    Скачать бесплатно Клаустрофобия
    Клаустрофобия скачать торрент
    Клаустрофобия смотреть онлайн
    Cкачать фильм Клаустрофобия бесплатно
    Клаустрофобия скачать торрент в хорошем качестве
    Клаустрофобия смотреть онлайн бесплатно в хорошем качестве


    Вы не можете начинать темы
    Вы не можете отвечать на сообщения
    Вы не можете редактировать свои сообщения
    Вы не можете удалять свои сообщения
    Вы не можете голосовать в опросах
    Вы не можете прикреплять файлы к сообщениям
    Вы можете скачивать файлы