Ссылка на приватное зеркало нашего сайта всего за 1$. Внимание количество ограничено!!!

2 сезон

iTunes

1 сезон

1

iTunes

iTunes

iTunes

1 сезон

RePack

30

ИГРА 18+

pack

ВАЖНО

!!Акция!!

Alien_RageХит недели

RePack

MK11
pack

Забери бонус

RePack

jed

!!Акция!!

Alien_Rage

RePack

fifa19

RePack

Assassins Creed: Odyssey

RePack

NEED FOR SPEED™ PAYBACK

4 сезон

9 сезон

Бесстыжие 9 сезон

Все сериалы

все сериалы на PB.wtf

RePack

FAR CRY 5
  

Звездные войны: Война клонов / Star Wars: The Clone Wars (Дэйв Филони) [2008 г., мультфильм, фантастика, боевик, триллер, приключения, BDRip, DUB + Оригинал отдельно] pb.wtf

Звездные войны: Война клонов через торрент pb.wtf

Размер: 1.72 GB | Добавлен: 8 лет 2 мес. назад | Торрент скачан:462 раза
Скачать  

25-08-2012 11:09 Звездные войны: Война клонов Скачать торрент  

Звездные войны: Война клонов / Star Wars: The Clone Wars

Год выпуска: 2008
Страна: США
Жанр: мультфильм, фантастика, боевик, триллер, приключения
Продолжительность: 98 мин. / 01:38
Перевод: Дубляж + Оригинал отдельно
Тип релиза: Лицензия

Режиссер: Дэйв Филони
Продюссер: Катрин Уиндер, Джордж Лукас
Сценарий: Генри Гилрой, Стивен Мельчинг, Скотт Мерфи

Бюджет: $8 500 000
Сборы в США: $35 161 554
Сборы в мире: + $32 873 282 = $68 034 836
Сборы в России: $1 300 000
DVD в США: $20 570 953
Зрители: 204.4 тыс., 63.8 тыс.
Премьера (мир): 10 августа 2008, (Премьера в Калифорнии)
Премьера (РФ): 2 октября 2008, «Каро-Премьер»
Релиз на DVD: 2 декабря 2008, «Юниверсал Пикчерс Рус», ...
Релиз на Blu-Ray: 23 декабря 2009, «Юниверсал Пикчерс Рус», ...


Этот рейтинг получают фильмы, которые требуют внимания со стороны родителей. Возможно некоторые сцены из картины родители посчитают неприемлемыми для просмотра своими детьми. Но в фильме точно отсутствуют сексуальные эпизоды и сцены с использованием наркотиков. Рейтинг PG никогда не присвоят ленте жанра хоррор или триллер.


В ролях: Мэтт Лантер Эшли Дрейн Джеймс Арнольд Тейлор Ди Брэдли Бейкер Том Кэйн Ника Футтерман Йен Эберкромби Кори Бертон Катрин Табер Мэттью Вуд

Описание: На передовых позициях межгалактической войны Добра и Зла — снова любимые герои: Анакин Скайуокер, Оби-Ван Кеноби и Падме Амидала, а также присоединившийся к ним падаван Анакина, Асока.

Противостоящие им злодеи — Палпатин, граф Дуку и генерал Гривус — вынашивают план захвата Галактики. Начинается последняя схватка, и судьбы Вселенной вверены рыцарям-джедаям. Их подвиги станут самыми яркими эпизодами масштабных битв и подарят множество удивительных открытий.
Кинопремия «Золотая малина 2009»
Номинации: Худший сиквел, римейк или плагиат

Анимационный сериал (Продолжение Этого Анимационного Фильма) : Звездные войны: Войны клонов (ТВ)
А так же рекомендуем к просмотру: Звездные войны 1: Скрытая угроза ,Звездные Войны: Эпизод II - Атака клонов , Звездные Войны: Эпизод III - Месть ситхов , Звездные войны: эпизод IV - новая надежда , Звездные войны: эпизод V - Империя наносит ответный удар , Звездные войны: эпизод VI - возвращение джедая
Качество: BDRip
Формат: AVI
Видео кодек: XviD
Аудио кодек: AC3
Видео: 1726 kbps, 0.33 bit/pixel , 720 x 304, 2.37:1, 23.976 fps
Аудио#1: 48,0 КГц 384.00 kbps, 6 Ch
Общее
Полное имя : C:\Users\Администратор\Downloads\Zvezdnye.Vojny.Vojny.Klonov.2008\Zvezdnye.Vojny.Vojny.Klonov.2008.ENG.ac3
Формат : AC-3
Формат/Информация : Audio Coding 3
Размер файла : 270 Мбайт
Продолжительность : 1 ч. 38 м.
Режим общего битрейта : Постоянный
Общий поток : 384 Кбит/сек

Аудио
Формат : AC-3
Формат/Информация : Audio Coding 3
Расширение режима : CM (complete main)
Параметр Endianness формата : Big
Продолжительность : 1 ч. 38 м.
Вид битрейта : Постоянный
Битрейт : 384 Кбит/сек
Каналы : 6 каналов
Расположение каналов : Front: L C R, Side: L R, LFE
Частота : 48,0 КГц
Битовая глубина : 16 бит
Метод сжатия : С потерями
Размер потока : 270 Мбайт (100%)

Общее
Полное имя : C:\Users\Администратор\Downloads\Zvezdnye.Vojny.Vojny.Klonov.2008\Zvezdnye.Vojny.Vojny.Klonov.2008.RUS.BDRip.XviD.AC3.-HQ-ViDEO.avi
Формат : AVI
Формат/Информация : Audio Video Interleave
Размер файла : 1,46 Гбайт
Продолжительность : 1 ч. 38 м.
Общий поток : 2120 Кбит/сек
Название фильма : Звездные войны: Войны клонов / Star Wars: The Clone Wars (2008)
Режиссёр : SENATOR (BDRip 720)
Программа кодирования : VirtualDubMod 1.5.10.2 (build 2540/release)
Правообладатель : HQ-ViDEO (www.hq-video.ru)
Примечание : 22.12.2008

Видео
Идентификатор : 0
Формат : MPEG-4 Visual
Профиль формата : Advanced Simple@L5
Параметр BVOP формата : 2
Параметр QPel формата : Нет
Параметр GMC формата : Без точки перехода
Параметр матрицы формата : Default (MPEG)
Режим смешивания : Сжатый битовый поток
Идентификатор кодека : XVID
Идентификатор кодека/Подсказка : XviD
Продолжительность : 1 ч. 38 м.
Битрейт : 1727 Кбит/сек
Ширина : 720 пикселей
Высота : 304 пикселя
Соотношение сторон : 2,35:1
Соотношение сторон в оригинале : 2,35:1
Частота кадров : 23,976 кадра/сек
Цветовое пространство : YUV
Субдискретизация насыщенности : 4:2:0
Битовая глубина : 8 бит
Тип развёртки : Прогрессивная
Метод сжатия : С потерями
Бит/(Пиксели*Кадры) : 0.329
Размер потока : 1,19 Гбайт (81%)
Библиотека кодирования : XviD 1.2.1 (UTC 2008-12-04)

Аудио
Идентификатор : 1
Формат : AC-3
Формат/Информация : Audio Coding 3
Расширение режима : CM (complete main)
Параметр Endianness формата : Big
Идентификатор кодека : 2000
Продолжительность : 1 ч. 38 м.
Вид битрейта : Постоянный
Битрейт : 384 Кбит/сек
Каналы : 6 каналов
Расположение каналов : Front: L C R, Side: L R, LFE
Частота : 48,0 КГц
Битовая глубина : 16 бит
Метод сжатия : С потерями
Размер потока : 270 Мбайт (18%)
Выравнивание : Разделение по промежуткам
Продолжительность промежутка : 42 мс. (1,00 видеокадр)
Время предзагрузки промежутка : 500 мс.

pb.wtf



Скачать Звездные войны: Война клонов через торрент http://pic.kartinco.top/images/1/n9g6vyulw1.jpg Скачать фильм Звездные войны: Война клонов через торрент бесплантно в хорошем качестве Описание: На передовых позициях межгалактической войны Добра и Зла — снова любимые герои: Анакин Скайуокер, Оби-Ван Кеноби и Падме Амидала, ... 8 10 3
Info! Золотая раздача, скачанное не засчитывается.
Торрент: Зарегистрирован [2012-08-25 11:09] · скачан: 462 раз
Статус: √ проверено
Размер: 1.72 GB
Как cкачать? Как скачать Звездные войны: Война клонов через торрент | qTorrent

% Раздел Тема Автор DL S | L
Мультсериалы [ 35.8 GB ] Звёздные войны: Войны клонов / Star Wars: The Clone Wars / Сезон: 1-7 из 7 / Серии: 1-133 из 133 [2008-2014 анимация WEB-DLRip] MVO LostFilm qwerty1234 Скачать
2 | 0
Ultra HD (UHD: 2K, 4K, 8K) — видео сверхвысокой чёткости [ 13.11 GB ] Звездные войны: Эпизод 2: Атака клонов / Star Wars: Episode II - Attack of the Clones [2002 UHD BDRip 2160p] DUB [] bober100 Скачать
1 | 2
Ultra HD (UHD: 2K, 4K, 8K) — видео сверхвысокой чёткости [ 48 GB ] Звездные войны: Эпизод 2: Атака клонов / Star Wars: Episode II - Attack of the Clones [2002 UHD BDRemux 2160p] DUB [] bober100 Скачать
1 | 0
Мультсериалы [ 17.72 GB ] Звездные войны: Войны клонов / Star Wars: The Clone Wars / Сезон: 7 / Серии: 1-12 из 12 [2020 WEBRip 1080p] MVO [LostFilm] bober100 Скачать
1 | 1
Мультсериалы [ 7.08 GB ] Звездные войны: Войны клонов / Star Wars: The Clone Wars / Сезон: 7 / Серии: 1-5 из 12 [2020 WEB-DL 1080p] MVO [TVShows] bober100 Скачать
1 | 0
Мультсериалы [ 3.79 GB ] Звездные войны: Войны клонов / Star Wars: The Clone Wars / Сезон: 7 / Серии: 1-5 из 12 [2020 WEB-DL 720p] MVO [TVShows] bober100 Скачать
1 | 0
Фильмы 2001-2005 [ 3.12 GB ] Звездные войны. Эпизод 2: Атака клонов / Star Wars: Episode II - Attack of the Clones [2002 BDRip-AVC BD CEE MVO AVO] от ExKinoRay morfyi Скачать
1 | 0

28-11-2019 20:33  

Отключить всю рекламу на сайте

05-10-2013 14:32 Звездные войны: Война клонов Скачать торрент  

ElectroVamp писал(а):

Звездные войны: Война клонов / Star Wars: The Clone Wars (Дэйв Филони) [2008 г., мультфильм, фантастика, боевик, триллер, приключения, BDRip, DUB + Оригинал отдельно]

pb.wtf



    Дорогой пользователь! Огромная просьба, поблагодарите релизера, оцените раздачу и оставьте свои комментарий, если Вы скачали Звездные войны: Война клонов через торрент бесплатно! Внесите свою лепту в развитие PiratBit!
    Комментировать посты могут только пользователи прошедшие не сложную регистрацию
    Показать сообщения:    

    Звездные войны: Война клонов через торрент
    Скачать бесплатно Звездные войны: Война клонов
    Звездные войны: Война клонов скачать торрент
    Звездные войны: Война клонов смотреть онлайн
    Cкачать фильм Звездные войны: Война клонов бесплатно
    Звездные войны: Война клонов скачать торрент в хорошем качестве
    Звездные войны: Война клонов смотреть онлайн бесплатно в хорошем качестве


    Вы не можете начинать темы
    Вы не можете отвечать на сообщения
    Вы не можете редактировать свои сообщения
    Вы не можете удалять свои сообщения
    Вы не можете голосовать в опросах
    Вы не можете прикреплять файлы к сообщениям
    Вы можете скачивать файлы