Всегда рабочее зеркало без VPN и Proxy просто перед .vidak.icu напиши любое слово или цифру, Пример http://3xrd.vidak.icu

Лицензия

MVO

1 сезон

1

1 сезон

iTunes

1 сезон

13

1 сезон

Deluxe

pack

Рекомендуем

Repack

30

ВАЖНО

RePack

MK11

RePack

jed

RePack

fifa19

RePack

RDR2

RePack

NEED FOR SPEED™ PAYBACK

Кинопоиск HD

6 сезон

 Острые козырьки 6 сезон

Все сериалы

все сериалы на PB.wtf

RePack

FAR CRY 5
  
Magnet ссылка

Мой самый страшный кошмар / Mon pire cauchemar (Анн Фонтен) [2011 г., мелодрама, комедия, BDRip-AVC, MVO, лицензия] pb.wtf

Мой самый страшный кошмар через торрент pb.wtf

Размер: 1.45 GB | Добавлен: 9 лет назад | Торрент скачан:193 раза
Смотреть онлайн Мой самый страшный кошмар | Скачать    Ребята, помогите собрать деньги на оплату серверов!!!

25-08-2012 15:01 Мой самый страшный кошмар Скачать торрент  

Мой самый страшный кошмар / Mon pire cauchemar

Год выпуска: 2011
Страна: Франция, Бельгия
Жанр: мелодрама, комедия
Продолжительность: 01:39:39
Перевод: Профессиональный многоголосый, Лицензия

Режиссер: Анн Фонтен
Премьера в мире: 27 августа 2011



В ролях: Изабель Юппер, Бенуа Пульворд, Андре Дюссолье, Вирджиния Эфира, Орельен Рекуан, Эрик Бергер, Филипп Маньян, Бруно Подалидес

Описание: Она живет со своим мужем и сыном рядом с Люксембургским дворцом. Он живет со своим сыном в задней части фургона. Она возглавляет престижный фонд современного искусства. Он вынужден перебиваться случайной работой. Она регулярно встречается с министром культуры. Он встречается только с бутылками алкоголя. Она любит обсуждать разные идеи. Он любит секс с женщинами с большой грудью.

Они совершенно не имеют ничего общего и не должны были бы даже встречаться. Но их дети становятся неразлучными, и вскоре им самим предстоит понять почему. Столкновение двух разных миров затронет жизни не только их самих, но и всех окружающих.

Качество: BDRip-AVC
Формат: MKV
Видео кодек: H.26x
Аудио кодек: AC3
Видео: 960x520 (16:9), 23.976 fps, 1695 kbps, 0.142 bit/pixel
Аудио: 48 kHz, AC3 5.1, 384.00 kbps

Общее
Уникальный идентификатор : 195318767158373979252813394872328390834 (0x92F106B779ADF905B8DEF323549208B2)
Полное имя : D:\Mon pire cauchemar.2011.BDRip-AVC.mkv
Формат : Matroska
Версия формата : Version 2
Размер файла : 1,45 Гбайт
Продолжительность : 1 ч. 39 м.
Общий поток : 2079 Кбит/сек
Название фильма : Мой самый страшный кошмар / Mon pire cauchemar (2011) BDRip-AVC rip by Rulya74
Дата кодирования : UTC 2012-08-25 14:12:24
Программа кодирования : mkvmerge v5.7.0 ('The Whirlwind') built on Jul 8 2012 20:08:51
Библиотека кодирования : libebml v1.2.3 + libmatroska v1.3.0

Видео
Идентификатор : 1
Формат : AVC
Формат/Информация : Advanced Video Codec
Профиль формата : [email protected]
Параметр CABAC формата : Да
Параметр ReFrames формата : 8 кадров
Идентификатор кодека : V_MPEG4/ISO/AVC
Продолжительность : 1 ч. 39 м.
Битрейт : 1695 Кбит/сек
Ширина : 960 пикселей
Высота : 520 пикселей
Соотношение сторон : 16:9
Частота кадров : 23,976 кадра/сек
Цветовое пространство : YUV
Субдискретизация насыщенности : 4:2:0
Битовая глубина : 8 бит
Тип развёртки : Прогрессивная
Бит/(Пиксели*Кадры) : 0.142
Размер потока : 1,15 Гбайт (80%)
Библиотека кодирования : x264 core 125 r2208 d9d2288
Настройки программы : cabac=1 / ref=8 / deblock=1:-3:-2 / analyse=0x3:0x133 / me=umh / subme=10 / psy=1 / psy_rd=1.00:0.10 / mixed_ref=1 / me_range=36 / chroma_me=1 / trellis=2 / 8x8dct=1 / cqm=0 / deadzone=21,11 / fast_pskip=0 / chroma_qp_offset=-3 / threads=10 / lookahead_threads=1 / sliced_threads=0 / nr=0 / decimate=1 / interlaced=0 / bluray_compat=0 / constrained_intra=0 / bframes=7 / b_pyramid=2 / b_adapt=2 / b_bias=0 / direct=3 / weightb=1 / open_gop=0 / weightp=2 / keyint=240 / keyint_min=22 / scenecut=40 / intra_refresh=0 / rc=2pass / mbtree=0 / bitrate=1695 / ratetol=1.0 / qcomp=0.60 / qpmin=10 / qpmax=51 / qpstep=4 / cplxblur=20.0 / qblur=0.5 / ip_ratio=1.40 / pb_ratio=1.30 / aq=1:1.00
Default : Да
Forced : Нет

Аудио
Идентификатор : 2
Формат : AC-3
Формат/Информация : Audio Coding 3
Расширение режима : CM (complete main)
Идентификатор кодека : A_AC3
Продолжительность : 1 ч. 39 м.
Вид битрейта : Постоянный
Битрейт : 384 Кбит/сек
Каналы : 6 каналов
Расположение каналов : Front: L C R, Side: L R, LFE
Частота : 48,0 КГц
Битовая глубина : 16 бит
Метод сжатия : С потерями
Размер потока : 274 Мбайт (18%)
Заголовок : Профессиональный многоголосый
Язык : Russian
Default : Да
Forced : Нет
pb.wtf



Скачать Мой самый страшный кошмар через торрент https://pic1.kartinco.top/images/111/cajraoi3i4.png Скачать, смотреть онлайн Мой самый страшный кошмар бесплантно в хорошем качестве Описание: Она живет со своим мужем и сыном рядом с Люксембургским дворцом. Он живет со своим сыном в задней части фургона. Она возглавляет ... 5 10 1
Info! Золотая раздача, скачанное не засчитывается.
Торрент: Зарегистрирован [2012-08-25 15:01] · скачан: 193 раз
Статус: √ проверено
Размер: 1.45 GB
Как cкачать? Как скачать Мой самый страшный кошмар через торрент | UTorrent

% Раздел Тема Автор DL S | L
Фильмы [HD 720p, 1080p] (Хороший звук DUB, MVO) [ 11.24 GB ] Мой самый страшный кошмар / Mon pire cauchemar [2011 BDRip 1080p by msltel] MVO msltel Скачать
1 | 0
Фильмы [HD 720p, 1080p] (Хороший звук DUB, MVO) [ 4.13 GB ] Мой самый страшный кошмар / Mon pire cauchemar [2011 BDRip 720p by msltel] MVO msltel Скачать
1 | 0
Фильмы 2011 [ 2.39 GB ] Мой самый страшный кошмар / Mon pire cauchemar [2011 BDRip AVC by msltel] MVO msltel Скачать
1 | 0
Фильмы [HD 720p, 1080p] (Хороший звук DUB, MVO) [ 6.03 GB ] Мой самый страшный кошмар / Mon pire cauchemar [2011 BDRip 720p MVO лицензия] [email protected] Скачать
1 | 0
Фильмы [HD 720p, 1080p] (Хороший звук DUB, MVO) [ 4.8 GB ] Мой самый страшный кошмар / Mon pire cauchemar [2011 BDRip 720p + Оригинал] AlexKa Скачать
1 | 0
Фильмы 2011 [ 1.46 GB ] Мой самый страшный кошмар / Mon pire cauchemar / 2011 / HDRip maygli Скачать
1 | 0
Фильмы 2011 [ 698 MB ] Мой самый страшный кошмар / Mon pire cauchemar [2011 HDRip] MVO [ лицензия ] -=Cherry=- Скачать
1 | 0

28-11-2019 20:33  

Отключить вcю реклaмy на сайте

    Дорогой пользователь! Огромная просьба, поблагодарите релизера, оцените раздачу и оставьте свои комментарий, если Вы скачали Мой самый страшный кошмар через торрент бесплатно!
    Комментировать посты могут только пользователи прошедшие не сложную регистрацию
    Показать сообщения:    

    Мой самый страшный кошмар через торрент
    Скачать бесплатно Мой самый страшный кошмар
    Мой самый страшный кошмар скачать торрент
    Мой самый страшный кошмар смотреть онлайн
    Cкачать фильм Мой самый страшный кошмар бесплатно
    Мой самый страшный кошмар скачать торрент в хорошем качестве
    Мой самый страшный кошмар смотреть онлайн бесплатно в хорошем качестве


    Вы не можете начинать темы
    Вы не можете отвечать на сообщения
    Вы не можете редактировать свои сообщения
    Вы не можете удалять свои сообщения
    Вы не можете голосовать в опросах
    Вы не можете прикреплять файлы к сообщениям
    Вы можете скачивать файлы