Ссылка на приватное зеркало нашего сайта всего за 1$. Внимание количество ограничено!!!

2 сезон

iTunes

1 сезон

1

iTunes

iTunes

iTunes

1 сезон

RePack

30

ИГРА 18+

pack

ВАЖНО

!!Акция!!

Alien_RageХит недели

RePack

MK11
pack

Забери бонус

RePack

jed

!!Акция!!

Alien_Rage

RePack

fifa19

RePack

Assassins Creed: Odyssey

RePack

NEED FOR SPEED™ PAYBACK

4 сезон

9 сезон

Бесстыжие 9 сезон

Все сериалы

все сериалы на PB.wtf

RePack

FAR CRY 5
  

Одна ночь с королем / One Night with the King (Майкл О Сэйжбел) [2006 г., драма, BDRip 720p, Профессиональный (многоголосый) + Оригинал] pb.wtf

Одна ночь с королем через торрент pb.wtf

Размер: 6.51 GB | Добавлен: 8 лет 1 мес. назад | Торрент скачан:42 раза
Скачать  

25-08-2012 15:23 Одна ночь с королем Скачать торрент  

Одна ночь с королем / One Night with the King

Год выпуска: 2006
Страна: США
Жанр: драма
Продолжительность: 01:57:32
Перевод: Профессиональный (многоголосый) + Оригинал
Субтитры: Английские

Режиссер: Майкл О Сэйжбел
Продюссер: Лоуренс Морторфф, Стефан Блинн, Ричард Дж. Кук
Сценарий: Стефан Блинн, Марк Эндрю Олсен, Томми Тенни

рекомендуется присутствие родителей
Мировой рейтинг IMDB 6.00 (3 852)


В ролях: Тиффани Дюпон, Люк Госс, Джон Ноубл, Омар Шариф, Джон Рис-Дэвис, Том Тайни Листер мл., Джеймс Кэллис, Питер ОТул, Джавен Кэмпбелл

Описание: Юная и необычайно прекрасная девушка. Она выросла в нищете, ведь росла она в семье рабов. Но, однажды, волей случая, а может и самой судьбы, она попадает в королевский дворец. Милая девушка ещё не подозревает, какие события и деяния ожидают её впереди...Ей придется привнести все свои силы и умения, чтобы сыграть свою главную, важную роль в жизни всего королевства!

Качество: BDRip 720p
Формат: MKV
Видео кодек: H.26x
Аудио кодек: AC3
Видео: AVC (H264), 1280x528 (2.424), ~7351 kb/s, 25.000 fps
Аудио#1: Русский: AC-3 , 448 kb/s, 6 ch, 48 kHz
Аудио#2: Английский: AC-3 , 128 kb/s, 2 ch, 48 kHz
Общее
Уникальный идентификатор : 171346692626049405490157809940044208379 (0x80E82C30D366E5BBB5B87C09A3E458FB)
Полное имя : F:\Закачки\Odna.Nochj.S.Korolem.2006.BDRip.720p.mkv
Формат : Matroska
Версия формата : Version 1
Размер файла : 6,51 Гбайт
Продолжительность : 1 ч. 57 м.
Общий поток : 7929 Кбит/сек
Название фильма : Ночь с королем / One Night with the King (2006) BDRip-AVC от FireBit
Дата кодирования : UTC 2011-07-22 15:44:25
Программа кодирования : mkvmerge v2.3.0 ('Freak U') built on Sep 8 2008 18:32:16
Библиотека кодирования : libebml v0.7.7 + libmatroska v0.8.1

Видео
Идентификатор : 1
Формат : AVC
Формат/Информация : Advanced Video Codec
Профиль формата : High@L4.1
Параметр CABAC формата : Да
Параметр ReFrames формата : 5 кадров
Идентификатор кодека : V_MPEG4/ISO/AVC
Продолжительность : 1 ч. 57 м.
Битрейт : 7351 Кбит/сек
Ширина : 1280 пикселей
Высота : 528 пикселей
Соотношение сторон : 2,40:1
Режим частоты кадров : Постоянный
Частота кадров : 25,000 кадров/сек
Цветовое пространство : YUV
Субдискретизация насыщенности : 4:2:0
Битовая глубина : 8 бит
Тип развёртки : Прогрессивная
Бит/(Пиксели*Кадры) : 0.435
Размер потока : 5,91 Гбайт (91%)
Заголовок : http://firebit.org
Библиотека кодирования : x264 core 116 r2019 9cc407d
Настройки программы : cabac=1 / ref=5 / deblock=1:0:0 / analyse=0x3:0x133 / me=umh / subme=7 / psy=1 / psy_rd=1.00:0.00 / mixed_ref=1 / me_range=16 / chroma_me=1 / trellis=1 / 8x8dct=1 / cqm=0 / deadzone=21,11 / fast_pskip=0 / chroma_qp_offset=-2 / threads=12 / sliced_threads=0 / nr=0 / decimate=1 / interlaced=0 / bluray_compat=0 / constrained_intra=0 / bframes=3 / b_pyramid=2 / b_adapt=1 / b_bias=0 / direct=1 / weightb=1 / open_gop=0 / weightp=2 / keyint=250 / keyint_min=25 / scenecut=40 / intra_refresh=0 / rc_lookahead=40 / rc=2pass / mbtree=1 / bitrate=7351 / ratetol=1.0 / qcomp=0.60 / qpmin=0 / qpmax=69 / qpstep=4 / cplxblur=20.0 / qblur=0.5 / ip_ratio=1.40 / aq=1:1.00
Язык : English
Default : Да
Forced : Нет

Аудио #1
Идентификатор : 2
Формат : AC-3
Формат/Информация : Audio Coding 3
Расширение режима : CM (complete main)
Параметр Endianness формата : Big
Идентификатор кодека : A_AC3
Продолжительность : 1 ч. 57 м.
Вид битрейта : Постоянный
Битрейт : 448 Кбит/сек
Каналы : 6 каналов
Расположение каналов : Front: L C R, Side: L R, LFE
Частота : 48,0 КГц
Битовая глубина : 16 бит
Метод сжатия : С потерями
Размер потока : 377 Мбайт (6%)
Заголовок : http://firebit.org
Язык : Russian
Default : Да
Forced : Нет

Аудио #2
Идентификатор : 3
Формат : AC-3
Формат/Информация : Audio Coding 3
Расширение режима : CM (complete main)
Параметр Endianness формата : Big
Идентификатор кодека : A_AC3
Продолжительность : 1 ч. 57 м.
Вид битрейта : Постоянный
Битрейт : 128 Кбит/сек
Каналы : 2 канала
Расположение каналов : Front: L R
Частота : 48,0 КГц
Битовая глубина : 16 бит
Метод сжатия : С потерями
Задержка видео : 4 мс.
Размер потока : 108 Мбайт (2%)
Заголовок : http://firebit.org
Язык : English
Default : Нет
Forced : Нет

Текст #1
Идентификатор : 4
Формат : UTF-8
Идентификатор кодека : S_TEXT/UTF8
Идентификатор кодека/Информация : UTF-8 Plain Text
Заголовок : http://firebit.org
Язык : English
Default : Да
Forced : Нет

Текст #2
Идентификатор : 5
Формат : UTF-8
Идентификатор кодека : S_TEXT/UTF8
Идентификатор кодека/Информация : UTF-8 Plain Text
Заголовок : http://firebit.org
Язык : English
Default : Нет
Forced : Нет

Текст #3
Идентификатор : 6
Формат : UTF-8
Идентификатор кодека : S_TEXT/UTF8
Идентификатор кодека/Информация : UTF-8 Plain Text
Заголовок : http://firebit.org
Язык : English
Default : Нет
Forced : Нет

pb.wtf



Скачать Одна ночь с королем через торрент http://i40.fastpic.ru/big/2012/0825/0f/2afd1d27a4a9ab94e7f652b2eeadf80f.jpg Скачать фильм Одна ночь с королем через торрент бесплантно в хорошем качестве Описание: Юная и необычайно прекрасная девушка. Она выросла в нищете, ведь росла она в семье рабов. Но, однажды, волей случая, а может и ... 5 10 1
Info! Золотая раздача, скачанное не засчитывается.
Торрент: Зарегистрирован [2012-08-25 15:23] · скачан: 42 раз
Статус: √ проверено
Размер: 6.51 GB
Как cкачать? Как скачать Одна ночь с королем через торрент | qTorrent



Последний раз редактировалось: DJERG (2012-08-25 16:32), всего редактировалось 2 раз(а)

28-11-2019 20:33  

Отключить всю рекламу на сайте

25-08-2012 15:29 Одна ночь с королем Скачать торрент  

DJERG
При создании релиза будьте внимательны,не путайте разделы.pb.wtf



25-08-2012 15:34 Одна ночь с королем Скачать торрент  

Vetаl писал(а):

DJERG
При создании релиза будьте внимательны,не путайте разделы.

Буду внимательней pb.wtf



25-08-2012 15:52 Одна ночь с королем Скачать торрент  

DJERG писал(а):

Перевод: Профессиональный

укажи какой именно перевод (дубляж или многоголосный)pb.wtf



25-08-2012 15:57 Одна ночь с королем Скачать торрент  

Demonessa писал(а):

DJERG писал(а):

Перевод: Профессиональный

укажи какой именно перевод (Dub или многоголосный)

не плохо было бы и шаблон поправить, а то приходится исправлениями заниматься
с уважением DJERGpb.wtf



25-08-2012 16:02 Одна ночь с королем Скачать торрент  

Профессиональный (многоголлосый)pb.wtf



22-08-2013 23:34 Одна ночь с королем Скачать торрент  

Раздайте пожалуйста, а то 80% скачал уже недели 3 назад и дальше никак :)pb.wtf



    Дорогой пользователь! Огромная просьба, поблагодарите релизера, оцените раздачу и оставьте свои комментарий, если Вы скачали Одна ночь с королем через торрент бесплатно! Внесите свою лепту в развитие PiratBit!
    Комментировать посты могут только пользователи прошедшие не сложную регистрацию
    Показать сообщения:    

    Одна ночь с королем через торрент
    Скачать бесплатно Одна ночь с королем
    Одна ночь с королем скачать торрент
    Одна ночь с королем смотреть онлайн
    Cкачать фильм Одна ночь с королем бесплатно
    Одна ночь с королем скачать торрент в хорошем качестве
    Одна ночь с королем смотреть онлайн бесплатно в хорошем качестве


    Вы не можете начинать темы
    Вы не можете отвечать на сообщения
    Вы не можете редактировать свои сообщения
    Вы не можете удалять свои сообщения
    Вы не можете голосовать в опросах
    Вы не можете прикреплять файлы к сообщениям
    Вы можете скачивать файлы