Ссылка на приватное зеркало нашего сайта всего за 1$. Внимание количество ограничено!!!

2 сезон

iTunes

1 сезон

1

iTunes

iTunes

iTunes

1 сезон

RePack

30

ИГРА 18+

pack

ВАЖНО

!!Акция!!

Alien_RageХит недели

RePack

MK11
pack

Забери бонус

RePack

jed

!!Акция!!

Alien_Rage

RePack

fifa19

RePack

Assassins Creed: Odyssey

RePack

NEED FOR SPEED™ PAYBACK

4 сезон

9 сезон

Бесстыжие 9 сезон

Все сериалы

все сериалы на PB.wtf

RePack

FAR CRY 5
  

Звездный десант: Вторжение / Starship Troopers: Invasion (Синдзи Арамаки) [2012 г., мультфильм, фантастика, боевик, HDRip, MVO, лицензия] pb.wtf

Звездный десант: Вторжение через торрент pb.wtf

Размер: 1.41 GB | Добавлен: 8 лет 2 мес. назад | Торрент скачан:2473 раза
Скачать  

26-08-2012 01:56 Звездный десант: Вторжение Скачать торрент  

Звездный десант: Вторжение / Starship Troopers: Invasion

Год выпуска: 2012
Страна: США, Япония
Жанр: мультфильм, фантастика, боевик
Продолжительность: 01:29:00
Перевод: Профессиональный многоголосый, Лицензия

Режиссер: Синдзи Арамаки
Продюссер: Джозеф Чоу, Эдвард Ноймайер, Каспер Ван Дин
Сценарий: Флинт Дилл, Роберт А. Хайнлайн

лицам до 17 лет обязательно присутствие взрослого
Мировой рейтинг IMDB 5.60 (1 148)


Описание: После того, как был покинут отдаленный форпост Федерации, Форт Кейси, Карл Дженкинс отправляется на разведку и исчезает в туманности. Закаленные во множественных боях солдаты могут своими действиями принести на Землю смерть человечества, а могут и наоборот его спасти. Третьего не дано.

Качество: HDRip
Формат: AVI
Видео кодек: XviD
Аудио кодек: AC3
Видео:720x400 (1.80:1), 23.976 fps, XviD build 50 ~1820 kbps avg, 0.26 bit/pixel [Рип с BDRip 720p]

Аудио#1:48 kHz, AC3 Dolby Digital, 3/2 (L,C,R,l,r) + LFE ch, ~448 kbps






General
Complete name : Zvezdnuy.Desant.Vtorjenie.2012.P.HDRip.1400Mb.avi
Format : AVI
Format/Info : Audio Video Interleave
File size : 1.41 GiB
Duration : 1h 28mn
Overall bit rate : 2 277 Kbps
Writing application : VirtualDubMod 1.5.10.2 (build 2540/release)
Writing library : VirtualDubMod build 2540/release

Video
ID : 0
Format : MPEG-4 Visual
Format profile : Advanced Simple@L5
Format settings, BVOP : 2
Format settings, QPel : No
Format settings, GMC : No warppoints
Format settings, Matrix : Default (H.263)
Codec ID : XVID
Codec ID/Hint : XviD
Duration : 1h 28mn
Bit rate : 1 820 Kbps
Width : 720 pixels
Height : 400 pixels
Display aspect ratio : 16:9
Frame rate : 23.976 fps
Color space : YUV
Chroma subsampling : 4:2:0
Bit depth : 8 bits
Scan type : Progressive
Compression mode : Lossy
Bits/(Pixel*Frame) : 0.264
Stream size : 1.13 GiB (80%)
Writing library : XviD 1.2.1 (UTC 2008-12-04)

Audio
ID : 1
Format : AC-3
Format/Info : Audio Coding 3
Mode extension : CM (complete main)
Format settings, Endianness : Big
Codec ID : 2000
Duration : 1h 28mn
Bit rate mode : Constant
Bit rate : 448 Kbps
Channel(s) : 6 channels
Channel positions : Front: L C R, Side: L R, LFE
Sampling rate : 48.0 KHz
Bit depth : 16 bits
Compression mode : Lossy
Stream size : 285 MiB (20%)
Alignment : Split accross interleaves
Interleave, duration : 42 ms (1.00 video frame)
Interleave, preload duration : 500 ms

pb.wtf



Скачать Звездный десант: Вторжение через торрент http://s002.youpic.su/pictures/1345924800/fcc4c4d7c99d3453a61a3830e83d39c6.jpg Скачать фильм Звездный десант: Вторжение через торрент бесплантно в хорошем качестве Описание: После того, как был покинут отдаленный форпост Федерации, Форт Кейси, Карл Дженкинс отправляется на разведку и исчезает в ... 9.8 10 16
Info! Золотая раздача, скачанное не засчитывается.
Торрент: Зарегистрирован [2012-08-26 01:56] · скачан: 2 473 раз
Статус: √ проверено
Размер: 1.41 GB
Как cкачать? Как скачать Звездный десант: Вторжение через торрент | qTorrent

% Раздел Тема Автор DL S | L
Фильмы (Blu-ray, BD-Remux, HDDVD) [ 17.49 GB ] Звездный десант: Вторжение / Starship Troopers: Invasion [2012 Анимационный BDRemux + Оригинал] AlexKa Скачать
1 | 0
Зарубежные Мультфильмы (BDRip 1080p, 720p, Blu-ray, BD-Remux) [ 2.2 GB ] Звездный десант: Вторжение / Starship Troopers: Invasion [2012 мультфильм BDRip 720p MVO лицензия] slaventi-69 Скачать
1 | 0
Зарубежные Мультфильмы (DVD) [ 6.85 GB ] Звездный десант: Вторжение / Starship Troopers: Invasion [2012 мультфильм DVD9] R5 «Columbia/Sony» voovaz Скачать
2 | 0
Иностранные мультфильмы [ 1.41 GB ] Звездный десант: Вторжение / Starship Troopers: Invasion / 2012 / BDRip maygli Скачать
1 | 0


Последний раз редактировалось: L1NK1N (2012-08-26 03:41), всего редактировалось 3 раз(а)

28-11-2019 20:33  

Отключить всю рекламу на сайте

26-08-2012 03:19 Звездный десант: Вторжение Скачать торрент  

Скриншоты не соответствуют тех данным видео
Добавь МедиаИнфо на файл

L1NK1N писал(а):

Видео: 656x368

pb.wtf



26-08-2012 03:38 Звездный десант: Вторжение Скачать торрент  

Demonessa
Сделалpb.wtf



27-08-2012 11:18 Звездный десант: Вторжение Скачать торрент  

зачетный мульт. японцы - не америкосы - графа выше всяких похвал, сценарий ваще атас! да вы сравните с чисто американческим мультом-уёбищемpb.wtf



27-08-2012 20:46 Звездный десант: Вторжение Скачать торрент  

Шикарный мульт!!! Советую всемpb.wtf



02-09-2012 12:01 Звездный десант: Вторжение Скачать торрент  

Спасибо! Посмотрим.pb.wtf



06-09-2012 12:53 Звездный десант: Вторжение Скачать торрент  

Спасибо!!!pb.wtf



17-09-2012 18:23 Звездный десант: Вторжение Скачать торрент  

молодцы япошкиpb.wtf



    Дорогой пользователь! Огромная просьба, поблагодарите релизера, оцените раздачу и оставьте свои комментарий, если Вы скачали Звездный десант: Вторжение через торрент бесплатно! Внесите свою лепту в развитие PiratBit!
    Комментировать посты могут только пользователи прошедшие не сложную регистрацию
    Показать сообщения:    

    Звездный десант: Вторжение через торрент
    Скачать бесплатно Звездный десант: Вторжение
    Звездный десант: Вторжение скачать торрент
    Звездный десант: Вторжение смотреть онлайн
    Cкачать фильм Звездный десант: Вторжение бесплатно
    Звездный десант: Вторжение скачать торрент в хорошем качестве
    Звездный десант: Вторжение смотреть онлайн бесплатно в хорошем качестве


    Вы не можете начинать темы
    Вы не можете отвечать на сообщения
    Вы не можете редактировать свои сообщения
    Вы не можете удалять свои сообщения
    Вы не можете голосовать в опросах
    Вы не можете прикреплять файлы к сообщениям
    Вы можете скачивать файлы