2 сезон

iTunes

MVO

1

2 сезон

iTunes

iTunes

1 сезон

RePack

30

Новинка

ВАЖНО

ИГРА 18+

pack

RePack

MK11
pack

Легкие деньги

RePack

jed

RePack

fifa19

RePack

RDR2

RePack

NEED FOR SPEED™ PAYBACK

4 сезон

9 сезон

Бесстыжие 9 сезон

Все сериалы

все сериалы на PB.wtf

RePack

FAR CRY 5

Anonymous, добрый день, мы не успеваем собрать деньги на оплату серверов за декабрь и январь, помогите нам пожалуйста в это трудное время. В качестве благодарности мы отключим Вам всю рекламу на сайте (укажите свой ник в строку Ваше имя)!

×
  
Magnet ссылка

Мcтители в 3Д / The Аvengers 3D (Джосс Уидон) [2012 г., Фантастика, Боевик, BDRip, 1080p, 3D] Half OverUnder / Вертикальная анаморфная стереопара pb.wtf

Мcтители в 3Д через торрент pb.wtf

Размер: 14.52 GB | Добавлен: 8 лет 4 мес. назад | Торрент скачан:2799 раз
Скачать  

26-08-2012 04:16 Мcтители в 3Д Скачать торрент  

Мcтители в 3Д / The Аvengers 3D

Год выпуска: 2012
Страна: США (Marvel, Paramaunt Pictures, Walt Disney Studios)
Жанр: Фантастика, Боевик
Продолжительность: 02:22:54
Перевод: Профессиональный (полное дублирование)
Язык субтитров: Русский, Английский, Украинский
Режиссер:
  • Джосс Уидон

Роли исполняли (дублировали):
  • Тони Старк / Железный человек - Роберт Дауни мл. (Владимир Зайцев)
  • Стив Роджерс / Капитан Америка - Крис Эванс (Даниил Эльдаров)
  • Брюс Баннер / Халк - Марк Руффало (Алексей Мясников)
  • Тор - Крис Хемсворт (Иван Жарков)
  • Наташа Романофф / Чёрная вдова - Скарлетт Йоханссон (Татьяна Шитова)
  • Клинт Бартон / Соколиный Глаз - Джереми Реннер (Илья Исаев)
  • Локи - Том Хиддлстон (Александр Гаврилин)
  • Ник Фьюри - Сэмюэл Л. Джексон (Владимир Антоник)
  • Агент Фил Коулсон - Кларк Грегг (Андрей Казанцев)
  • Агент Мария Хилл - Коби Смолдерс (Наталья Грачева)
  • Сельвиг - Стеллан Скарсгард (Василий Бочкарев)
  • Пеппер Поттс - Гвинет Пэлтроу (Полина Щербакова)
  • Джарвис (озвучка) - Пол Беттани (Вячеслав Баранов)

"Локи, сводный брат Тора, возвращается, и в этот раз он не один. Земля на грани порабощения, и только лучшие из лучших могут спасти человечество.
Ник Фьюри, глава международной организации Щ. И. Т., собирает выдающихся поборников справедливости и добра, чтобы отразить атаку. Под предводительством Капитана Америки Железный Человек, Тор, Невероятный Халк, Соколиный глаз и Чёрная Вдова вступают в войну с захватчиком."
"Когда Земле грозит смертельно опасный враг, спасение мира требует коллективных усилий. Невероятно богатый плейбой и изобретатель, русская шпионка, полубог, суперсолдат времён Второй мировой, профессиональный убийца и сумасшедший учёный объединяются в команду "Мстители". Им непросто работать вместе, но они последняя надежда человечества.
Встречайте невероятно зрелищный, масштабный, полный приключений, звёзд и юмора фантастический боевик в формате 3Д."
|
Автор рипа Ash61Премьера: 25 апреля 2012
Бюджет: $220 000 000
Кассовые сборы: $1 480 668 487
Фильм смотреть до самого конца - посреди финальных титров и после них есть ещё пара эпизодов.

Качество: BDRip
Формат: MKV
Формат 3D: Half OverUnder / Вертикальная анаморфная стереопара
Видео кодек: H.264
Аудио кодек: AC3
Видео: AVC / 23,976 fps / 1920х1080p / 12.3 Mbps
Аудио:
#1 - Русский / AC3 / 48 KHz / 5.1 ch / 640 Kbps
#2 - Украинский / AC3 / 48 KHz / 5.1 ch / 640 Kbps
#3 - Английский / AC3 / 48 KHz / 5.1 ch / 640 Kbps
Субтитры (SRT)
Внешние:
#1 - Русские форсированные (включены по умолчанию)
#2 - Украинские форсированные
#3 - Английские Forced
Вшитые softsub:
#1 - Русские форсированные (включены по умолчанию)
#2 - Русские полные
#3 - Украинские форсированные
#4 - Украинские полные
#5 - Английские Forced
#6 - Английские Full
#7 - Английские SDH
скриншот  скриншот  скриншот  скриншот  скриншот  скриншот  скриншот  

pb.wtf



Скачать Мcтители в 3Д через торрент http://s002.youpic.su/pictures/1345838400/c068114b1e4a257562bd8b28e89a8f5b.png Скачать фильм Мcтители в 3Д через торрент бесплантно в хорошем качестве Год выпуска: 2012Страна: США (Marvel, Paramaunt Pictures, Walt Disney Studios)Жанр: Фантастика, БоевикПродолжительность: 02:22:54Перевод: ... 10 10 25
Info! Золотая раздача, скачанное не засчитывается.
Торрент: Зарегистрирован [2012-08-26 04:16] · скачан: 2 799 раз
Статус: √ проверено
Размер: 14.52 GB
Как cкачать? Как скачать Мcтители в 3Д через торрент | UTorrent

28-11-2019 20:33  

Отключить всю рекламу на сайте

26-08-2012 07:33 Мcтители в 3Д Скачать торрент  

Вставьте медиаинфо:
General
UniqueID : 244868506138498181750407810014396189268 (0xB837F57699BBBE4B8B124589B4068A54)
Complete name : F:\Downloads\TheAvengers(3D)2012.halfOU(Ash61)\TheAvengers(3D)2012.halfOU(Ash61).mkv
Format : Matroska
File size : 14.5 GiB
Duration : 2h 22mn
Overall bit rate : 14.5 Mbps
Movie name : The Avengers (3D) 2012 (by Ash61)
Encoded date : UTC 2012-08-24 05:52:04
Writing application : mkvmerge v3.4.0 ('Rapunzel') сборка от May 15 2010 09:38:20
Writing library : libebml v0.8.0 + libmatroska v0.9.0

Video
ID : 1
Format : AVC
Format/Info : Advanced Video Codec
Format profile : High@L4.1
Format settings, CABAC : Yes
Format settings, ReFrames : 4 frames
Codec ID : V_MPEG4/ISO/AVC
Duration : 2h 22mn
Bit rate : 12.3 Mbps
Width : 1 920 pixels
Height : 1 080 pixels
Display aspect ratio : 16:9
Frame rate : 23.976 fps
Color space : YUV
Chroma subsampling : 4:2:0
Bit depth : 8 bits
Scan type : Progressive
Bits/(Pixel*Frame) : 0.248
Stream size : 12.3 GiB (85%)
Title : BDrip by Ash61
Writing library : x264 core 119 r2106 07efeb4
Encoding settings : cabac=1 / ref=4 / deblock=1:-3:-3 / analyse=0x3:0x113 / me=umh / subme=9 / psy=1 / psy_rd=1.00:0.15 / mixed_ref=1 / me_range=16 / chroma_me=1 / trellis=2 / 8x8dct=1 / cqm=0 / deadzone=21,11 / fast_pskip=1 / chroma_qp_offset=-3 / threads=3 / sliced_threads=0 / nr=0 / decimate=1 / interlaced=0 / bluray_compat=0 / constrained_intra=0 / bframes=6 / b_pyramid=2 / b_adapt=2 / b_bias=0 / direct=3 / weightb=1 / open_gop=0 / weightp=2 / keyint=250 / keyint_min=23 / scenecut=40 / intra_refresh=0 / rc_lookahead=60 / rc=crf / mbtree=1 / crf=17.0 / qcomp=0.70 / qpmin=0 / qpmax=69 / qpstep=4 / vbv_maxrate=40000 / vbv_bufsize=40000 / crf_max=0.0 / nal_hrd=none / frame-packing=4 / ip_ratio=1.40 / aq=1:0.70
Language : English

Audio #1
ID : 2
Format : AC-3
Format/Info : Audio Coding 3
Mode extension : CM (complete main)
Codec ID : A_AC3
Duration : 2h 22mn
Bit rate mode : Constant
Bit rate : 640 Kbps
Channel(s) : 6 channels
Channel positions : Front: L C R, Side: L R, LFE
Sampling rate : 48.0 KHz
Bit depth : 16 bits
Compression mode : Lossy
Stream size : 654 MiB (4%)
Title : Дубляж
Language : Russian

Audio #2
ID : 3
Format : AC-3
Format/Info : Audio Coding 3
Mode extension : CM (complete main)
Codec ID : A_AC3
Duration : 2h 22mn
Bit rate mode : Constant
Bit rate : 640 Kbps
Channel(s) : 6 channels
Channel positions : Front: L C R, Side: L R, LFE
Sampling rate : 48.0 KHz
Bit depth : 16 bits
Compression mode : Lossy
Stream size : 654 MiB (4%)
Title : Дубляж
Language : Ukrainian

Audio #3
ID : 4
Format : AC-3
Format/Info : Audio Coding 3
Mode extension : CM (complete main)
Codec ID : A_AC3
Duration : 2h 22mn
Bit rate mode : Constant
Bit rate : 640 Kbps
Channel(s) : 6 channels
Channel positions : Front: L C R, Side: L R, LFE
Sampling rate : 48.0 KHz
Bit depth : 16 bits
Compression mode : Lossy
Stream size : 654 MiB (4%)
Title : Original
Language : English

Text #1
ID : 5
Format : UTF-8
Codec ID : S_TEXT/UTF8
Codec ID/Info : UTF-8 Plain Text
Title : Форсированные
Language : Russian

Text #2
ID : 6
Format : UTF-8
Codec ID : S_TEXT/UTF8
Codec ID/Info : UTF-8 Plain Text
Title : Полные
Language : Russian

Text #3
ID : 7
Format : UTF-8
Codec ID : S_TEXT/UTF8
Codec ID/Info : UTF-8 Plain Text
Title : Форсированные
Language : Ukrainian

Text #4
ID : 8
Format : UTF-8
Codec ID : S_TEXT/UTF8
Codec ID/Info : UTF-8 Plain Text
Title : Полные
Language : Ukrainian

Text #5
ID : 9
Format : UTF-8
Codec ID : S_TEXT/UTF8
Codec ID/Info : UTF-8 Plain Text
Title : Forced
Language : English

Text #6
ID : 10
Format : UTF-8
Codec ID : S_TEXT/UTF8
Codec ID/Info : UTF-8 Plain Text
Title : Full
Language : English

Text #7
ID : 11
Format : UTF-8
Codec ID : S_TEXT/UTF8
Codec ID/Info : UTF-8 Plain Text
Title : SDH
Language : English

Menu
00:00:00.000 : :1
00:08:02.315 : :2
00:11:49.167 : :3
00:15:18.751 : :4
00:20:33.482 : :5
00:23:04.258 : :6
00:29:39.444 : :7
00:37:23.992 : :8
00:42:47.982 : :9
00:50:22.269 : :10
01:01:04.661 : :11
01:14:05.107 : :12
01:28:01.234 : :13
01:38:20.561 : :14
01:45:40.167 : :15
01:51:15.085 : :16
01:57:47.769 : :17
02:04:38.680 : :18
02:09:39.397 : :19
02:13:10.691 : :20
pb.wtf



26-08-2012 10:44 Мcтители в 3Д Скачать торрент  

Фильм бооооомба!!!!pb.wtf



26-08-2012 11:16 Мcтители в 3Д Скачать торрент  

спасибо, посмотрим в 3Dpb.wtf



27-08-2012 14:43 Мcтители в 3Д Скачать торрент  

и как это можно смотреть???pb.wtf



27-08-2012 14:46 Мcтители в 3Д Скачать торрент  

что нужно чтобы ЭТО в 3Д увидеть??? :to_pick_ones:pb.wtf



27-08-2012 14:49 Мcтители в 3Д Скачать торрент  

телек так же проигрыватель и очки (не бабушкины)pb.wtf



27-08-2012 14:54 Мcтители в 3Д Скачать торрент  

все конечно хорошо а на раздачу встаньте ктонитьpb.wtf



27-08-2012 17:42 Мcтители в 3Д Скачать торрент  

Народ а можна етот фильм скинуть на жестяк внешний а через юсб на телике смотреть? 3д есть очки активные есть.pb.wtf



27-08-2012 19:47 Мcтители в 3Д Скачать торрент  

Demon31
можноpb.wtf



26-09-2012 18:49 Мcтители в 3Д Скачать торрент  

ДАЙТЕ СКОРОСТИИИИИИИИ!!!!!!!!!!!!!!!!!!!!!!!!!!!!!!!!!!!!!!!!!!!!!!!!!!!!!!!!!!pb.wtf



27-09-2012 18:00 Мcтители в 3Д Скачать торрент  

СКОРОСТИ!! СКОРОСТИ!! СКОРОСТИ!!pb.wtf



01-11-2012 05:22 Мcтители в 3Д Скачать торрент  

Посмотрим,спасибо!!!pb.wtf



15-09-2013 04:25 Мcтители в 3Д Скачать торрент  

Что за файлы с мквшкой с разрешением ".srt"?pb.wtf



10-12-2013 18:17 Мcтители в 3Д Скачать торрент  

anton75
Скорости пожалуйста :-)pb.wtf



    Дорогой пользователь! Огромная просьба, поблагодарите релизера, оцените раздачу и оставьте свои комментарий, если Вы скачали Мcтители в 3Д через торрент бесплатно! Внесите свою лепту в развитие PiratBit!
    Комментировать посты могут только пользователи прошедшие не сложную регистрацию
    Показать сообщения:    

    Мcтители в 3Д через торрент
    Скачать бесплатно Мcтители в 3Д
    Мcтители в 3Д скачать торрент
    Мcтители в 3Д смотреть онлайн
    Cкачать фильм Мcтители в 3Д бесплатно
    Мcтители в 3Д скачать торрент в хорошем качестве
    Мcтители в 3Д смотреть онлайн бесплатно в хорошем качестве


    Вы не можете начинать темы
    Вы не можете отвечать на сообщения
    Вы не можете редактировать свои сообщения
    Вы не можете удалять свои сообщения
    Вы не можете голосовать в опросах
    Вы не можете прикреплять файлы к сообщениям
    Вы можете скачивать файлы