новый адрес
Ссылка на приватное зеркало всего за 1$. Внимание количество ограничено!!!

iTunes

1+1

iTunes

мы

WEB-DL

1

iTunes

Чернобыль

iTunes

Ральф против интернета

Лицензия

ПШазам

Лицензия

Оно 2

Лицензия

30
pack

Вам бонус

ВАЖНО

!!Акция!!

Alien_RageХит недели

RePack

Resident Evil 21

ИГРА 18+

pack

RePack

jed

!!Акция!!

Alien_Rage

RePack

fifa19

RePack

Assassins Creed: Odyssey

RePack

NEED FOR SPEED™ PAYBACK

3 сезон

9 сезон

Бесстыжие 9 сезон

Все сериалы

все сериалы на PB.wtf

RePack

FAR CRY 5
Ребята, катастрофически не хватает 1900р. для оплаты серверов за Октябрь (всвязи с блокировками трафик упал в 3 раза), 1-2р., выручайте.
  

Отверженная / Pariah (Ди Риис) [2011 г., Драма, BDRip 720p, VO] pb.wtf

Отверженная через торрент pb.wtf

Размер: 4.83 GB | Добавлен: 5 лет 2 мес. назад | Торрент скачан:20 раз
Скачать  

26-08-2012 08:33 Отверженная Скачать торрент  

Отверженная / Pariah

Год выпуска: 2011
Страна: США
Жанр: Драма
Продолжительность: 01:26:15
Перевод: Любительский одноголосый
Язык субтитров: Английский

Режиссер: Ди Риис

В ролях: Одеперо Одуйе, Пернелл Уолкер, Ааша Дэвис, Чарльз Парнелл, Ким Уайанс, Шэмика Коттон, Рэймонд Энтони Томас, Эфтон Уильямсон, Забрина Гевара

Описание: История о девочке-подростоке из Бруклина, ее жизни полной противоречий. Вместо платья она носит мешковатые мальчиковые джинсы и рубашки. Отчаянно стремится найти свою любовь, окруженная стеной непонимания со стороны семьи и друзей из-за своей сексуальной ориентации.

Качество: BDRip 720p
Формат: MKV
Видео кодек: MPEG-4 AVC/H.264
Аудио кодек: AC3 5.1 / DTS
Видео: AVC, 1280x696 (16:9), 23.976 fps, 5 744 Kbps
Аудио#1: AC-3, 48.0 KHz, 6 ch, 384 Kbps, CBR (Russian)
Аудио#2: DTS, 48.0 KHz, 6 ch, 1 510 Kbps, CBR (English)

скриншот  

дубляжа не будет

скриншот  скриншот  скриншот  скриншот  

Общее
Уникальный идентификатор : 221930782107891830488335192327903766471 (0xA6F6505AB87A7A91A1B12ADC2883E7C7)
Полное имя : D:\Films\Pariah.2011.720p.BDRip.mkv
Формат : Matroska
Версия формата : Version 2
Размер файла : 4,60 Гбайт
Продолжительность : 1 ч. 26 м.
Общий поток : 7636 Кбит/сек
Дата кодирования : UTC 2012-08-25 12:59:09
Программа кодирования : mkvmerge v5.2.0 ('I can't explain') built on Dec 18 2011 18:12:03
Библиотека кодирования : libebml v1.2.3 + libmatroska v1.3.0

Видео
Идентификатор : 1
Формат : AVC
Формат/Информация : Advanced Video Codec
Профиль формата : High@L4.1
Параметр CABAC формата : Да
Параметр ReFrames формата : 5 кадров
Идентификатор кодека : V_MPEG4/ISO/AVC
Продолжительность : 1 ч. 26 м.
Битрейт : 5744 Кбит/сек
Ширина : 1280 пикселей
Высота : 696 пикселей
Соотношение сторон : 1,85:1
Частота кадров : 23,976 кадра/сек
Цветовое пространство : YUV
Субдискретизация насыщенности : 4:2:0
Битовая глубина : 8 бит
Тип развёртки : Прогрессивная
Бит/(Пиксели*Кадры) : 0.269
Размер потока : 3,37 Гбайт (73%)
Библиотека кодирования : x264 core 122 r2184 5c85e0a
Настройки программы : cabac=1 / ref=5 / deblock=1:0:0 / analyse=0x3:0x113 / me=umh / subme=8 / psy=1 / psy_rd=1.00:0.00 / mixed_ref=1 / me_range=16 / chroma_me=1 / trellis=1 / 8x8dct=1 / cqm=0 / deadzone=21,11 / fast_pskip=1 / chroma_qp_offset=-2 / threads=12 / sliced_threads=0 / nr=0 / decimate=1 / interlaced=0 / bluray_compat=0 / constrained_intra=0 / bframes=3 / b_pyramid=2 / b_adapt=2 / b_bias=0 / direct=3 / weightb=1 / open_gop=0 / weightp=2 / keyint=240 / keyint_min=24 / scenecut=40 / intra_refresh=0 / rc_lookahead=50 / rc=2pass / mbtree=1 / bitrate=5744 / ratetol=1.0 / qcomp=0.60 / qpmin=0 / qpmax=69 / qpstep=4 / cplxblur=20.0 / qblur=0.5 / ip_ratio=1.40 / aq=1:1.00
Язык : English
Default : Да
Forced : Нет

Аудио #1
Идентификатор : 2
Формат : AC-3
Формат/Информация : Audio Coding 3
Расширение режима : CM (complete main)
Параметр Endianness формата : Big
Идентификатор кодека : A_AC3
Продолжительность : 1 ч. 26 м.
Вид битрейта : Постоянный
Битрейт : 384 Кбит/сек
Каналы : 6 каналов
Расположение каналов : Front: L C R, Side: L R, LFE
Частота : 48,0 КГц
Битовая глубина : 16 бит
Метод сжатия : С потерями
Размер потока : 237 Мбайт (5%)
Заголовок : VO [Kenum]
Язык : Russian
Default : Да
Forced : Нет

Аудио #2
Идентификатор : 3
Формат : DTS
Формат/Информация : Digital Theater Systems
Идентификатор кодека : A_DTS
Продолжительность : 1 ч. 26 м.
Вид битрейта : Постоянный
Битрейт : 1510 Кбит/сек
Каналы : 6 каналов
Расположение каналов : Front: L C R, Side: L R, LFE
Частота : 48,0 КГц
Битовая глубина : 24 бит
Метод сжатия : С потерями
Размер потока : 931 Мбайт (20%)
Язык : English
Default : Нет
Forced : Нет

Текст
Идентификатор : 4
Формат : UTF-8
Идентификатор кодека : S_TEXT/UTF8
Идентификатор кодека/Информация : UTF-8 Plain Text
Язык : English
Default : Нет
Forced : Нет

Меню
00:00:00.000 : en:00:00:00.000
00:04:32.147 : en:00:04:32.147
00:07:30.283 : en:00:07:30.283
00:11:18.303 : en:00:11:18.303
00:16:30.489 : en:00:16:30.489
00:19:40.930 : en:00:19:40.930
00:24:02.316 : en:00:24:02.316
00:28:41.553 : en:00:28:41.553
00:34:26.982 : en:00:34:26.982
00:38:26.262 : en:00:38:26.262
00:42:22.373 : en:00:42:22.373
00:48:38.165 : en:00:48:38.165
00:54:30.767 : en:00:54:30.767
00:58:35.846 : en:00:58:35.846
01:01:30.312 : en:01:01:30.312
01:06:05.420 : en:01:06:05.420
01:11:48.888 : en:01:11:48.888
01:15:10.840 : en:01:15:10.840
01:18:34.293 : en:01:18:34.293
01:22:19.560 : en:01:22:19.560


Работавший над релизом никогда не откажется от благодарности в виде СПАСИБО!!!! pb.wtf



Скачать Отверженная через торрент http://s002.youpic.su/pictures/1345924800/dd5c5a77c24a070426ed0fbb6ed40dec.jpg Скачать фильм Отверженная через торрент бесплантно в хорошем качестве Описание: История о девочке-подростоке из Бруклина, ее жизни полной противоречий. Вместо платья она носит мешковатые мальчиковые джинсы и ... 5 10 1
Торрент: Зарегистрирован [2014-09-14 23:17] · скачан: 20 раз
Статус: √ проверено
Размер: 4.83 GB
Как cкачать? Как скачать Отверженная через торрент | qTorrent



Последний раз редактировалось: AlexKa (2012-08-26 10:21), всего редактировалось 1 раз

28-11-2019 20:33  

Отключить всю рекламу на сайте

26-08-2012 10:17 Отверженная Скачать торрент  

Перевод: Любительский одноголосый
T временнаяpb.wtf



    Дорогой пользователь! Огромная просьба, поблагодарите релизера, оцените раздачу и оставьте свои комментарий, если Вы скачали Отверженная через торрент бесплатно! Внесите свою лепту в развитие PiratBit!
    Комментировать посты могут только пользователи прошедшие не сложную регистрацию
    Показать сообщения:    

    Отверженная через торрент
    Скачать бесплатно Отверженная
    Отверженная скачать торрент
    Отверженная смотреть онлайн
    Cкачать фильм Отверженная бесплатно
    Отверженная скачать торрент в хорошем качестве
    Отверженная смотреть онлайн бесплатно в хорошем качестве


    Вы не можете начинать темы
    Вы не можете отвечать на сообщения
    Вы не можете редактировать свои сообщения
    Вы не можете удалять свои сообщения
    Вы не можете голосовать в опросах
    Вы не можете прикреплять файлы к сообщениям
    Вы можете скачивать файлы