Ссылка на приватное зеркало всего за 1$. Внимание количество ограничено!!!


iTunes

1+1

iTunes

мы

WEB-DL

1

iTunes

Чернобыль

iTunes

Ральф против интернета

Лицензия

ПШазам

Лицензия

Оно 2

WEB-DL

30
pack

Вам бонус

ВАЖНО

!!Акция!!

Alien_RageХит недели

RePack

Resident Evil 21

ИГРА 18+

pack

RePack

jed

!!Акция!!

Alien_Rage

RePack

fifa19

RePack

Assassins Creed: Odyssey

RePack

NEED FOR SPEED™ PAYBACK

4 сезон

9 сезон

Бесстыжие 9 сезон

Все сериалы

все сериалы на PB.wtf

RePack

FAR CRY 5
Ребята, катастрофически не хватает 1900р. для оплаты серверов за Октябрь (всвязи с блокировками трафик упал в 3 раза), 1-2р., выручайте.
  

Развод Надера и Симин / Jodaeiye Nader az Simin (Асгар Фархади) [2011 г., драма, BDRip, MVO, лицензия] pb.wtf

Развод Надера и Симин через торрент pb.wtf

Размер: 2.18 GB | Добавлен: 7 лет 3 мес. назад | Торрент скачан:135 раз
Скачать  

26-08-2012 18:24 Развод Надера и Симин Скачать торрент  

Развод Надера и Симин / Jodaeiye Nader az Simin

Год выпуска: 2011
Страна: Иран
Жанр: драма
Продолжительность: 02:02:52
Перевод: Профессиональный многоголосый, Лицензия

Режиссер: Асгар Фархади
Продюссер: Асгар Фархади, Негар Эскандарфар
Сценарий: Асгар Фархади

детям до 13 лет просмотр не желателен
Мировой рейтинг IMDB 8.60 (59 040)


В ролях: Пейман Моади, Лейла Хатами, Саре Байат, Сарина Фархади, Али-Асгар Шахбази, Шахаб Хоссейни, Мерила Зареи, Бабак Карими, Кимиа Хуссейни, Ширин Язданбакхш

Описание: Супруги Надер и Симин решили уехать из Ирана в поисках лучшей жизни. Но в один момент Надер все-таки решает остаться рядом со своим отцом, страдающим болезнью Альцгеймера. Симин подает на развод в надежде уехать с их 11-летней дочерью, но судебное решение оказывается не в ее пользу. Дочь, тем временем, надеется, что мама одумается и вернется.

Качество: BDRip
Формат: AVI
Видео кодек: XviD
Аудио кодек: AC3
Видео: 704x384 (1,85:1), 23.976 fps, XviD build 72 2082 kbps avg, 0.32 bit/pixel
Аудио#1: 48.0 kHz, AC3 Dolby Digital, 3/2 (L,C,R,l,r) + LFE ch, ~448 kbps avg (RUS)
скриншот   скриншот   скриншот   скриншот  

Общее
Полное имя : D:\DVD\Razvod.Nadera.i.Simin.2011.RUS.BDRip.XviD.AC3.avi
Формат : AVI
Формат/Информация : Audio Video Interleave
Профиль формата : OpenDML
Размер файла : 2,18 Гбайт
Продолжительность : 2 ч. 2 м.
Общий поток : 2542 Кбит/сек
Название фильма : Развод Надера и Симин / A Separation / Jodaeiye Nader az Simin (2011) BDRip
Режиссёр : sociolog_melvas
Жанр : драма
Программа кодирования : VirtualDubMod 1.5.10.2 (build 2540/release)
Правообладатель :
Примечание : 28.06.2012

Видео
Идентификатор : 0
Формат : MPEG-4 Visual
Профиль формата : Advanced Simple@L5
Параметр BVOP формата : 1
Параметр QPel формата : Нет
Параметр GMC формата : Без точки перехода
Параметр матрицы формата : Выборочная
Идентификатор кодека : XVID
Идентификатор кодека/Подсказка : XviD
Продолжительность : 2 ч. 2 м.
Битрейт : 2082 Кбит/сек
Ширина : 704 пикселя
Высота : 384 пикселя
Соотношение сторон : 1,85:1
Частота кадров : 23,976 кадра/сек
Цветовое пространство : YUV
Субдискретизация насыщенности : 4:2:0
Битовая глубина : 8 бит
Тип развёртки : Прогрессивная
Метод сжатия : С потерями
Бит/(Пиксели*Кадры) : 0.321
Размер потока : 1,79 Гбайт (82%)
Библиотека кодирования : XviD 72

Аудио
Идентификатор : 1
Формат : AC-3
Формат/Информация : Audio Coding 3
Расширение режима : CM (complete main)
Параметр Endianness формата : Big
Идентификатор кодека : 2000
Продолжительность : 2 ч. 2 м.
Вид битрейта : Постоянный
Битрейт : 448 Кбит/сек
Каналы : 6 каналов
Расположение каналов : Front: L C R, Side: L R, LFE
Частота : 48,0 КГц
Битовая глубина : 16 бит
Метод сжатия : С потерями
Размер потока : 394 Мбайт (18%)
Выравнивание : Разделение по промежуткам
Продолжительность промежутка : 42 мс. (1,00 видеокадр)
Время предзагрузки промежутка : 500 мс.

pb.wtf



Скачать Развод Надера и Симин через торрент http://firepic.org/images/2012-02/24/vfs92eq791i4.jpg Скачать фильм Развод Надера и Симин через торрент бесплантно в хорошем качестве Описание: Супруги Надер и Симин решили уехать из Ирана в поисках лучшей жизни. Но в один момент Надер все-таки решает остаться рядом со ... 9 10 2
Info! Золотая раздача, скачанное не засчитывается.
Торрент: Зарегистрирован [2012-08-26 18:24] · скачан: 135 раз
Статус: √ проверено
Размер: 2.18 GB
Как cкачать? Как скачать Развод Надера и Симин через торрент | qTorrent



Последний раз редактировалось: slaventi-69 (2012-08-26 19:01), всего редактировалось 1 раз

28-11-2019 20:33  

Отключить всю рекламу на сайте

26-08-2012 18:48 Развод Надера и Симин Скачать торрент  

slaventi-69 писал(а):

Правообладатель :

Убираем ссылку в MediaInfo,ето реклама.pb.wtf



26-08-2012 19:03 Развод Надера и Симин Скачать торрент  

MI - Подправил.pb.wtf



26-08-2012 19:48 Развод Надера и Симин Скачать торрент  

Фильм весьма интересный, смотрел недавно. Интересная драма...pb.wtf



12-02-2016 18:47 Развод Надера и Симин Скачать торрент  

Спасибо.
Неплохой фильм.
О многом задумаешься...pb.wtf



    Дорогой пользователь! Огромная просьба, поблагодарите релизера, оцените раздачу и оставьте свои комментарий, если Вы скачали Развод Надера и Симин через торрент бесплатно! Внесите свою лепту в развитие PiratBit!
    Комментировать посты могут только пользователи прошедшие не сложную регистрацию
    Показать сообщения:    

    Развод Надера и Симин через торрент
    Скачать бесплатно Развод Надера и Симин
    Развод Надера и Симин скачать торрент
    Развод Надера и Симин смотреть онлайн
    Cкачать фильм Развод Надера и Симин бесплатно
    Развод Надера и Симин скачать торрент в хорошем качестве
    Развод Надера и Симин смотреть онлайн бесплатно в хорошем качестве


    Вы не можете начинать темы
    Вы не можете отвечать на сообщения
    Вы не можете редактировать свои сообщения
    Вы не можете удалять свои сообщения
    Вы не можете голосовать в опросах
    Вы не можете прикреплять файлы к сообщениям
    Вы можете скачивать файлы