новый адрес
Мега распродажа FORZA HORIZON 4 ULTIMATE+ВСЕ DLC+ОНЛАЙН всего за 499р. 349 руб. (супер цена). Внимание количество ограничено!!!

iTunes

1+1

iTunes

мы

iTunes

1

iTunes

Чернобыль

iTunes

Ральф против интернета

Лицензия

ПШазам

Лицензия

Игра престолов

Лицензия

30
pack

ВАЖНО

!!Акция!!

Alien_RageХит недели

RePack

Resident Evil 21

ИГРА 18+

pack

RePack

Metro:Exodus

!!Акция!!

Alien_Rage

RePack

fifa19

RePack

Assassins Creed: Odyssey

RePack

NEED FOR SPEED™ PAYBACK

3 сезон

9 сезон

Бесстыжие 9 сезон

Все сериалы

все сериалы на PB.wtf

RePack

FAR CRY 5
Ребята, катастрофически не хватает 1900р. для оплаты серверов за Октябрь (всвязи с блокировками трафик упал в 3 раза), 1-2р., выручайте.
  

Варвара-Краса, длинная коса (Александр Роу) [1969, сказка, семейный, BDRip 720р] pb.wtf

Варвара-Краса, длинная коса через торрент pb.wtf

Размер: 2.61 GB | Добавлен: 7 лет 2 мес. назад | Торрент скачан:129 раз
Скачать  

27-08-2012 20:12 Варвара-Краса, длинная коса Скачать торрент  


Варвара-Краса, длинная коса

Год выпуска: 1969
Cтрана: СССР
Жанр: сказка, семейный
Продолжительность: 01:20:25
Перевод: Не требуется
Режиссёр: Александр Роу
В ролях: Михаил Пуговкин, Георгий Милляр, Анатолий Кубацкий, Сергей Николаев, Алексей Катышев, Татьяна Клюева, Варвара Попова, Лидия Королева, Александр Хвыля, Борис Сичкин
Описание: Жил да был царь Еремей. Отправился он в годовой поход, чтобы составить опись своего царства-государства. Наклонился он как-то к колодцу напиться, но тут его и схватил подводный царь Чудо Юдо. Да потребовал выкуп за освобождение такой, о чем Еремей не ведал и не гадал, что оно есть в его царстве. Царь согласился, еще не зная, что в его отсутствие царица родила ему сына. Фильм рассказывает о том, как несмотря на всевозможные коварства и интриги, Андрей рыбацкий сын и Варвара повстречались и полюбили друг друга, как царю Еремею пришлось краснеть за своего ленивого и глупого наследника, и как в конце концов все закончилось хорошо...

Семпл: Сэмпл

Качество видео: BDRip 720p (Рип с Blu-Ray)
Формат видео: MKV

Видео: AVC at 4200 Кбит/сек 1280 x 544 (2.353) at 25.000 fps
Аудио: AC-3 at 448 Кбит/сек 6 каналов, 48,0 КГц ru
General
Complete name : Varvara-krasa.dlinnaya.kosa.O.1969.BDRip.720p.[uniongang.tv].mkv
Format : Matroska
Format version : Version 2
File size : 2.83 GiB
Duration : 1h 20mn
Overall bit rate : 5 045 Kbps
Movie name : Varvara-krasa.dlinnaya.kosa.O.1969.BDRip.720p.[uniongang.tv]
Encoded date : UTC 2012-08-27 04:05:38
Writing application : mkvmerge v5.3.0 ('I could have danced') built on Feb 9 2012 10:38:07
Writing library : libebml v1.2.3 + libmatroska v1.3.0

Video
ID : 1
Format : AVC
Format/Info : Advanced Video Codec
Format profile : High@L4.1
Format settings, CABAC : Yes
Format settings, ReFrames : 9 frames
Codec ID : V_MPEG4/ISO/AVC
Duration : 1h 20mn
Bit rate : 4 288 Kbps
Width : 1 280 pixels
Height : 544 pixels
Display aspect ratio : 2.35:1
Frame rate : 25.000 fps
Color space : YUV
Chroma subsampling : 4:2:0
Bit depth : 8 bits
Scan type : Progressive
Bits/(Pixel*Frame) : 0.246
Stream size : 2.35 GiB (83%)
Title : Varvara-krasa.dlinnaya.kosa.O.1969.BDRip.720p.[uniongang.tv] by Prov1zoR
Writing library : x264 core 119 r2106 07efeb4
Encoding settings : cabac=1 / ref=9 / deblock=1:-3:-3 / analyse=0x3:0x113 / me=umh / subme=11 / psy=1 / psy_rd=1.10:1.00 / mixed_ref=1 / me_range=32 / chroma_me=1 / trellis=2 / 8x8dct=1 / cqm=0 / deadzone=21,11 / fast_pskip=0 / chroma_qp_offset=-4 / threads=6 / sliced_threads=0 / nr=0 / decimate=1 / interlaced=0 / bluray_compat=0 / constrained_intra=0 / bframes=8 / b_pyramid=2 / b_adapt=2 / b_bias=0 / direct=3 / weightb=1 / open_gop=0 / weightp=2 / keyint=250 / keyint_min=25 / scenecut=40 / intra_refresh=0 / rc=2pass / mbtree=0 / bitrate=4288 / ratetol=1.0 / qcomp=0.60 / qpmin=0 / qpmax=69 / qpstep=4 / cplxblur=20.0 / qblur=0.5 / ip_ratio=1.40 / pb_ratio=1.30 / aq=1:1.00
Language : Russian

Audio
ID : 2
Format : DTS
Format/Info : Digital Theater Systems
Codec ID : A_DTS
Duration : 1h 20mn
Bit rate mode : Constant
Bit rate : 755 Kbps
Channel(s) : 6 channels
Channel positions : Front: L C R, Side: L R, LFE
Sampling rate : 48.0 KHz
Bit depth : 24 bits
Compression mode : Lossy
Stream size : 434 MiB (15%)
Language : Russian

Menu
00:00:00.000 : en:00:00:00.000
00:00:06.880 : en:00:00:06.880
00:07:40.000 : en:00:07:40.000
00:18:30.280 : en:00:18:30.280
00:27:59.560 : en:00:27:59.560
00:38:16.640 : en:00:38:16.640
00:48:13.800 : en:00:48:13.800
00:58:46.080 : en:00:58:46.080
01:08:40.920 : en:01:08:40.920
pb.wtf



Скачать Варвара-Краса, длинная коса через торрент http://pic.kartinco.top/images/1/ul8qve38g1.jpg Скачать фильм Варвара-Краса, длинная коса через торрент бесплантно в хорошем качестве Описание: Жил да был царь Еремей. Отправился он в годовой поход, чтобы составить опись своего царства-государства. Наклонился он как-то к ... 10 10 5
Info! Золотая раздача, скачанное не засчитывается.
Торрент: Зарегистрирован [2012-08-27 20:12] · скачан: 129 раз
Статус: √ проверено
Размер: 2.61 GB
Как cкачать? Как скачать Варвара-Краса, длинная коса через торрент | qTorrent

% Раздел Тема Автор DL S | L
Кино СССР [ 1.46 GB ] Варвара-Краса длинная коса [1969 СССР сказка BDRip-AVC от AVP Studio] AVP Studio Скачать
1 | 0
Кино СССР [ 2.18 GB ] Варвара-Краса длинная коса [1969 СССР сказка BDRip 720p от AVP Studio] AVP Studio Скачать
1 | 0
Кино СССР [ 745 MB ] Варвара-Краса длинная коса [1969 СССР сказка BDRip от AVP Studio] AVP Studio Скачать
1 | 0


>> Регистрируемся здесь <<






Отзывы и комментарии о схеме читаем и пишем здесь: ---> Отзывы и комментарии о схеме

Новые благодарочки в телеграм довольных пользователей:
скриншот   скриншот   скриншот   скриншот   скриншот

28-08-2012 14:46 Варвара-Краса, длинная коса Скачать торрент  

paul08
Благодарюpb.wtf



31-10-2014 18:22 Варвара-Краса, длинная коса Скачать торрент  

Спасибо! Большое!pb.wtf



    Дорогой пользователь! Огромная просьба, поблагодарите релизера, оцените раздачу и оставьте свои комментарий, если Вы скачали Варвара-Краса, длинная коса через торрент бесплатно! Внесите свою лепту в развитие PiratBit!
    Комментировать посты могут только пользователи прошедшие не сложную регистрацию
    Показать сообщения:    

    Варвара-Краса, длинная коса через торрент
    Скачать бесплатно Варвара-Краса, длинная коса
    Варвара-Краса, длинная коса скачать торрент
    Варвара-Краса, длинная коса смотреть онлайн
    Cкачать фильм Варвара-Краса, длинная коса бесплатно
    Варвара-Краса, длинная коса скачать торрент в хорошем качестве
    Варвара-Краса, длинная коса смотреть онлайн бесплатно в хорошем качестве


    Вы не можете начинать темы
    Вы не можете отвечать на сообщения
    Вы не можете редактировать свои сообщения
    Вы не можете удалять свои сообщения
    Вы не можете голосовать в опросах
    Вы не можете прикреплять файлы к сообщениям
    Вы можете скачивать файлы