Лицензия

MVO

1

1 сезон

Лицензия

Лицензия

13

MVO

1 сезон

Ultimate

pack

Рекомендуем

30

Repack

ВАЖНО

ВАЖНО

Ghostwire

RePack

jed

RePack

fifa19

RePack

RDR2

RePack

NEED FOR SPEED™ PAYBACK

RePack

Кинопоиск HD

 Острые козырьки 6 сезон

6 сезон

FAR CRY 6

RePack

Лицензия

MVO

1

1 сезон

1 сезон

Лицензия

  

Тетрадь смерти. Преемники L / Death note. Rewrite 2-L's Successors (Араки Тэцуро) [2008 г., анимация, детектив, мистика, DVDRip, DVO]

Тетрадь смерти. Преемники L через торрент pb.wtf

Размер: 1.2 GB | Добавлен: 10 лет назад | Торрент скачан:87 раз
Смотреть онлайн Тетрадь смерти. Преемники L | Скачать   

27-08-2012 23:39 Тетрадь смерти. Преемники L Скачать торрент  

Тетрадь смерти. Преемники L / Death note. Rewrite 2-L's Successors

Год выпуска: 2008
Страна: Япония
Жанр: анимация, детектив, мистика
Продолжительность: 1:34:08
Перевод: Любительский двухголосый

Режиссер: Араки Тэцуро
Сценарий: Иноуэ Тосики

Премьера в мире: 22 августа 2008 года

Описание: Вторая специальная версия аниме сериала Death Note, представляющая собой компиляцию последних 12 серий с дополнением нескольких сцен. Этот фильм начинается с 10-минутного монолога L, в котором он рассказывает всё, что знает о Кире. Но в этом фильме ведётся альтернативное действие героев и имеет несоответствие с аниме-сериалом.

Качество: DVDRip
Формат: AVI
Видео кодек: XviD
Аудио кодек: MP3
Видео: Xvid 704x384 24.10fps 1621kbps
Аудио#1: MPEG Audio Layer 3 44100Hz 2 ch stereo 192kbps









General
Complete name : D:\Торрент\Tetrad.smerti-preemniki.L.2008.XviD.DVDRip.avi
Format : AVI
Format/Info : Audio Video Interleave
File size : 1.20 GiB
Duration : 1h 34mn
Overall bit rate : 1 823 Kbps
Writing application : VirtualDubMod 1.5.10.2 (build 2542/release)
Writing library : VirtualDubMod build 2542/release

Video
ID : 0
Format : MPEG-4 Visual
Format profile : Advanced [email protected]
Format settings, BVOP : No
Format settings, QPel : No
Format settings, GMC : No warppoints
Format settings, Matrix : Default (MPEG)
Codec ID : XVID
Codec ID/Hint : XviD
Duration : 1h 34mn
Bit rate : 1 621 Kbps
Width : 704 pixels
Height : 384 pixels
Display aspect ratio : 16:9
Frame rate : 24.097 fps
Color space : YUV
Chroma subsampling : 4:2:0
Bit depth : 8 bits
Scan type : Progressive
Compression mode : Lossy
Bits/(Pixel*Frame) : 0.249
Stream size : 1.07 GiB (89%)
Writing library : XviD 1.1.2 (UTC 2006-11-01)

Audio
ID : 1
Format : MPEG Audio
Format version : Version 1
Format profile : Layer 3
Codec ID : 55
Codec ID/Hint : MP3
Duration : 1h 34mn
Bit rate mode : Constant
Bit rate : 192 Kbps
Channel(s) : 2 channels
Sampling rate : 44.1 KHz
Compression mode : Lossy
Stream size : 129 MiB (11%)
Alignment : Split accross interleaves
Interleave, duration : 42 ms (1.00 video frame)
Interleave, preload duration : 500 ms




Скачать Тетрадь смерти. Преемники L через торрент https://pic1.kartinco.top/images/111/k5yy257v18.jpg Скачать, смотреть онлайн Тетрадь смерти. Преемники L бесплантно в хорошем качестве Описание: Вторая специальная аниме сериала Death Note, представляющая собой компиляцию последних 12 серий с дополнением нескольких ... 10 10 3
Info! Золотая раздача, скачанное не засчитывается.
Торрент: Зарегистрирован [2012-08-27 23:39] · скачан: 87 раз
Статус: √ проверено
Размер: 1.2 GB
Как cкачать? Как скачать Тетрадь смерти. Преемники L через торрент | UTorrent




Последний раз редактировалось: Abosalatin (2012-08-28 12:59), всего редактировалось 2 раз(а)

28-11-2019 20:33  

Отключить вcю реклaмy на сайте

28-08-2012 06:56 Тетрадь смерти. Преемники L Скачать торрент  

блин сериал класс! а какое несоответствие?



28-08-2012 11:31 Тетрадь смерти. Преемники L Скачать торрент  

спасибо за релиз!



29-08-2012 19:04 Тетрадь смерти. Преемники L Скачать торрент  




    Дорогой пользователь! Огромная просьба, поблагодарите релизера, оцените раздачу и оставьте свои комментарий, если Вы скачали Тетрадь смерти. Преемники L через торрент бесплатно!!
    Комментировать посты могут только пользователи прошедшие не сложную регистрацию
    Показать сообщения:    


    Тетрадь смерти. Преемники L через торрент
    Скачать бесплатно Тетрадь смерти. Преемники L
    Тетрадь смерти. Преемники L скачать торрент
    Тетрадь смерти. Преемники L смотреть онлайн
    Cкачать фильм Тетрадь смерти. Преемники L бесплатно
    Тетрадь смерти. Преемники L скачать торрент в хорошем качестве
    Тетрадь смерти. Преемники L смотреть онлайн бесплатно в хорошем качестве
    Вы не можете начинать темы
    Вы не можете отвечать на сообщения
    Вы не можете редактировать свои сообщения
    Вы не можете удалять свои сообщения
    Вы не можете голосовать в опросах
    Вы не можете прикреплять файлы к сообщениям
    Вы можете скачивать файлы