Мега распродажа FORZA HORIZON 4 ULTIMATE+ВСЕ DLC+ОНЛАЙН всего за 499р. 349 руб. (супер цена). Внимание количество ограничено!!!

Лицензия

30

iTunes

мы

iTunes

1

1 сезон

Чернобыль

1 сезон

Ральф против интернета

MVO

Покемон. Детектив Пикачу

8 сезон

Игра престолов

iTunes

1+1

ИГРА 18+

pack

ВАЖНО

!!Акция!!

Alien_RageХит недели

RePack

Resident Evil 21
pack

RePack

Metro:Exodus

!!Акция!!

Alien_Rage

RePack

fifa19

RePack

Assassins Creed: Odyssey

RePack

NEED FOR SPEED™ PAYBACK

3 сезон

9 сезон

Бесстыжие 9 сезон

Все сериалы

все сериалы на PB.wtf

RePack

FAR CRY 5
Ребята, катастрофически не хватает 2730р. для оплаты серверов за МАЙ (всвязи с блокировками трафик упал в 3 раза), 1-2р., выручайте.
  

Мир фантастики: Темный рыцарь: Киноляпы и интересные факты / The Dark Knight (Кристофер Нолан) [2009 г., Документальный, Дополнительные материалы, BDRip, MVO, лицензия] pb.wtf

Мир фантастики: Темный рыцарь: Киноляпы и интересные факты через торрент pb.wtf

Размер: 113 MB | Добавлен: 6 лет 9 мес. назад | Торрент скачан:230 раз
Скачать  

28-08-2012 21:46 Мир фантастики: Темный рыцарь: Киноляпы и интересные факты Скачать торрент  

Мир фантастики: Темный рыцарь: Киноляпы и интересные факты / The Dark Knight

Год выпуска : 2009
Страна: США
Жанр: Документальный, Дополнительные материалы
Продолжительность: 0:09:17
Перевод: Профессиональный многоголосый, Лицензия
Тип релиза: Лицензия

Режиссер: Кристофер Нолан

Премьера в мире: 01.01.2009

В ролях: Кристиан Бэйл, Гэри Олдман, Аарон Экхарт, Майкл Кейн, Хит Леджер, Мэгги Джилленхаал, Морган Фримэн, Киллиан Мерфи

Описание: Киноляпы и интересные факты: Темный рыцар Ляпы создателей лучшего фантастического фильма 2008 года по версии «Мира фантастики»

Качество: HDRip
Формат: MP4
Видео кодек: H.26x
Аудио кодек: AAC
Видео: MPEG4 Video (H264) 1 570 Kbps 976x528 25.00fps
Аудио#1: 44100Hz stereo 1411kbps
Общее
Полное имя : C:\Users\Администратор\Downloads\The.Dark.Knight.Kinolyapy.2009.HDRip.h.264.mp4
Формат : MPEG-4
Профиль формата : Base Media / Version 2
Идентификатор кодека : mp42
Размер файла : 113 Мбайт
Продолжительность : 9 м. 17 с.
Режим общего битрейта : Переменный
Общий поток : 1700 Кбит/сек
Дата кодирования : UTC 2011-03-28 21:42:26
Дата пометки : UTC 2011-03-28 22:07:30

Видео
Идентификатор : 1
Формат : AVC
Формат/Информация : Advanced Video Codec
Профиль формата : Main@L3.1
Параметр CABAC формата : Да
Параметр ReFrames формата : 2 кадра
Идентификатор кодека : avc1
Идентификатор кодека/Информация : Advanced Video Coding
Продолжительность : 9 м. 17 с.
Вид битрейта : Переменный
Битрейт : 1570 Кбит/сек
Максимальный битрейт : 6222 Кбит/сек
Ширина : 976 пикселей
Высота : 528 пикселей
Соотношение сторон : 1,85:1
Режим частоты кадров : Постоянный
Частота кадров : 25,000 кадров/сек
Стандарт вещания : PAL
Цветовое пространство : YUV
Субдискретизация насыщенности : 4:2:0
Битовая глубина : 8 бит
Тип развёртки : Прогрессивная
Бит/(Пиксели*Кадры) : 0.122
Размер потока : 104 Мбайт (92%)
Язык : English
Дата кодирования : UTC 2011-03-28 21:42:27
Дата пометки : UTC 2011-03-28 22:07:30

Аудио
Идентификатор : 2
Формат : AAC
Формат/Информация : Advanced Audio Codec
Профиль формата : LC
Идентификатор кодека : 40
Продолжительность : 9 м. 17 с.
Вид битрейта : Переменный
Битрейт : 125 Кбит/сек
Максимальный битрейт : 143 Кбит/сек
Каналы : 2 канала
Расположение каналов : Front: L R
Частота : 44,1 КГц
Метод сжатия : С потерями
Размер потока : 8,30 Мбайт (7%)
Заголовок : MP3 2-кан. 44.1KHz
Язык : English
Дата кодирования : UTC 2011-03-28 21:42:27
Дата пометки : UTC 2011-03-28 22:07:30

pb.wtf



Скачать Мир фантастики: Темный рыцарь: Киноляпы и интересные факты через торрент http://www.gamestorr.ru/_ld/56/02533144.gif Скачать фильм Мир фантастики: Темный рыцарь: Киноляпы и интересные факты через торрент бесплантно в хорошем качестве Описание: Киноляпы и интересные факты: Темный рыцар Ляпы создателей лучшего фантастического фильма 2008 года по версии «Мира ... 10 10 2
Info! Золотая раздача, скачанное не засчитывается.
Торрент: Зарегистрирован [2012-08-28 21:46] · скачан: 230 раз
Статус: √ проверено
Размер: 113 MB
Как cкачать? Как скачать Мир фантастики: Темный рыцарь: Киноляпы и интересные факты через торрент | qTorrent


>> Регистрируемся здесь <<






Отзывы и комментарии о схеме читаем и пишем здесь: ---> Отзывы и комментарии о схеме

Новые благодарочки в телеграм довольных пользователей:
скриншот   скриншот   скриншот   скриншот   скриншот

29-08-2012 06:31 Мир фантастики: Темный рыцарь: Киноляпы и интересные факты Скачать торрент  

Класс,фанат но этого не видел,а есть ляпы "Бэтмен начало"?pb.wtf



29-08-2012 10:04 Мир фантастики: Темный рыцарь: Киноляпы и интересные факты Скачать торрент  

dante218 писал(а):

Класс,фанат но этого не видел,а есть ляпы "Бэтмен начало"?

Есть, но релизы надо искать и выкладывать ...
Будет свободное время. найду и выложу ...
pb.wtf



29-08-2012 14:14 Мир фантастики: Темный рыцарь: Киноляпы и интересные факты Скачать торрент  

I hate the batman,Joker forever!pb.wtf



    Дорогой пользователь! Огромная просьба, поблагодарите релизера, оцените раздачу и оставьте свои комментарий, если Вы скачали Мир фантастики: Темный рыцарь: Киноляпы и интересные факты через торрент бесплатно! Внесите свою лепту в развитие PiratBit!
    Комментировать посты могут только пользователи прошедшие не сложную регистрацию
    Показать сообщения:    

    Мир фантастики: Темный рыцарь: Киноляпы и интересные факты через торрент
    Скачать бесплатно Мир фантастики: Темный рыцарь: Киноляпы и интересные факты
    Мир фантастики: Темный рыцарь: Киноляпы и интересные факты скачать торрент
    Мир фантастики: Темный рыцарь: Киноляпы и интересные факты смотреть онлайн
    Cкачать фильм Мир фантастики: Темный рыцарь: Киноляпы и интересные факты бесплатно
    Мир фантастики: Темный рыцарь: Киноляпы и интересные факты скачать торрент в хорошем качестве
    Мир фантастики: Темный рыцарь: Киноляпы и интересные факты смотреть онлайн бесплатно в хорошем качестве


    Вы не можете начинать темы
    Вы не можете отвечать на сообщения
    Вы не можете редактировать свои сообщения
    Вы не можете удалять свои сообщения
    Вы не можете голосовать в опросах
    Вы не можете прикреплять файлы к сообщениям
    Вы можете скачивать файлы